ARRU





SOLA
Небо [01-13 of 13+2SP] [BD-Rip 720p]   Bookmark


Скачать вход / регистрация
Тема на форуме Обсудить аниме (комментариев: 58)
Обсуждение раздачи (комментариев: 13)
ОписаниеSOLA / Небо [01-13 of 13+2SP] [BD-Rip 720p]
Оригинальное название: 青空 / Sola
Английское название: Sola
Русское название: НЕБО

Страна: Япония
Жанр: романтика, драма, фэнтези
Год выхода: 2007
Колличество серий: 13 + 2 СПЕШЛА
Продолжительность: 25 мин
Студия: NOMAD
Режиссёр: Кобаяси Томоки / 小林智樹
Автор оригинала: Хисая Наоки / 久弥直樹

Описание:
Моримия Ёрито — обычный японский школьник (ну, по крайней мере, он так думает). Он увлекается фотографированием неба, в его комнате все стены, и даже потолок увешаны этими фотографиями. Во время одной из таких «фотосессий», ранним утром, он вдруг встречает незнакомую девушку, которая колотит по автомату, пытаясь добиться от него выдачи банки с неким странным напитком. Девушку звали Мацури. После этого была ещё встреча, а затем ему пришлось защищать её от странного мужчины с мечом... Когда он привёл её домой, выяснилось, что она вовсе не человек...

© vicza, www.world-art.ru

Названия эпизодов - показать

01. The Sky-Colored Umbrella
02. Looking up at the Blue
03. Peaceful Day
04. Two People's Wish
05. Pouring Light
06. Blood of a Sacrifice
07. Gray Sky
08. Indelible Thoughts
09. End of a Promise
10. Flickering Illusion
11. Pictures of a Reverie
12. The Boundary Between Light and Dark
13. Sky


Источник рипа: BDRip
Автор рипа\энкод: RACER RS
BD RE-тайминг звука (MaxDamage): RACER RS
Тип видео: Без хардсаба
Контейнер: MKV
Видео: AVC High@L3.0 | 8 bit |1280 x 720 (16:9) | 23,976 fps | 2500 kbps ;

Аудио:
RUS: AC3 | 48000Hz | 192 Kbps | 2ch  А Килька
RUS: AC3 | 48000Hz | 256 Kbps | 2ch  MaxDamage
JAP: AC3 | 48000Hz | 256 Kbps | 2ch
Субтитры: Ru - soft [ASS]

Перевод: Hollow Вилли

MediaInfo: - показать
Format                                   : Matroska
Format version                           : Version 2
File size                                : 547 MiB
Duration                                 : 23mn 47s
Overall bit rate                         : 3 214 Kbps
Encoded date                             : UTC 2014-05-02 16:36:53
Writing application                      : mkvmerge v5.3.0 ('I could have danced' built on Feb  9 2012 10:38:07
Writing library                          : libebml v1.2.3 + libmatroska v1.3.0

Video
ID                                       : 1
Format                                   : AVC
Format/Info                              : Advanced Video Codec
Format profile                           : High@L3.0
Format settings, CABAC                   : No
Format settings, ReFrames                : 2 frames
Muxing mode                              : Header stripping
Codec ID                                 : V_MPEG4/ISO/AVC
Duration                                 : 23mn 47s
Bit rate                                 : 2 500 Kbps
Width                                    : 1 280 pixels
Height                                   : 720 pixels
Display aspect ratio                     : 16:9
Frame rate mode                          : Constant
Frame rate                               : 23.976 fps
Color space                              : YUV
Chroma subsampling                       : 4:2:0
Bit depth                                : 8 bits
Scan type                                : Progressive
Bits/(Pixel*Frame)                       : 0.113
Stream size                              : 416 MiB (76%)
Writing library                          : x264 core 120 r2146M bcd41db
Encoding settings                        : cabac=0 / ref=1 / deblock=1:0:0 / analyse=0x3:0x133 / me=hex / subme=10 / psy=1 / psy_rd=1.00:0.20 / mixed_ref=0 / me_range=16 / chroma_me=1 / trellis=2 / 8x8dct=1 / cqm=0 / deadzone=21,11 / fast_pskip=1 / chroma_qp_offset=-3 / threads=8 / sliced_threads=0 / nr=0 / decimate=1 / interlaced=0 / bluray_compat=0 / constrained_intra=0 / bframes=1 / b_pyramid=0 / b_adapt=2 / b_bias=0 / direct=3 / weightb=1 / open_gop=0 / weightp=2 / keyint=230 / keyint_min=23 / scenecut=40 / intra_refresh=0 / rc_lookahead=0 / rc=2pass / mbtree=1 / bitrate=2500 / ratetol=1.0 / qcomp=0.60 / qpmin=10 / qpmax=51 / qpstep=4 / cplxblur=20.0 / qblur=0.5 / ip_ratio=1.40 / aq=1:1.00
Default                                  : Yes
Forced                                   : No

Audio #1
ID                                       : 2
Format                                   : AC-3
Format/Info                              : Audio Coding 3
Mode extension                           : CM (complete main)
Format settings, Endianness              : Big
Muxing mode                              : Header stripping
Codec ID                                 : A_AC3
Duration                                 : 23mn 47s
Bit rate mode                            : Constant
Bit rate                                 : 192 Kbps
Channel count                            : 2 channels
Channel positions                        : Front: L R
Sampling rate                            : 48.0 KHz
Bit depth                                : 16 bits
Compression mode                         : Lossy
Stream size                              : 32.7 MiB (6%)
Title                                    : А Килька
Language                                 : Russian
Default                                  : Yes
Forced                                   : No

Audio #2
ID                                       : 3
Format                                   : AC-3
Format/Info                              : Audio Coding 3
Mode extension                           : CM (complete main)
Format settings, Endianness              : Big
Muxing mode                              : Header stripping
Codec ID                                 : A_AC3
Duration                                 : 23mn 47s
Bit rate mode                            : Constant
Bit rate                                 : 256 Kbps
Channel count                            : 2 channels
Channel positions                        : Front: L R
Sampling rate                            : 48.0 KHz
Bit depth                                : 16 bits
Compression mode                         : Lossy
Stream size                              : 43.5 MiB (8%)
Title                                    : MaxDamage
Language                                 : Russian
Default                                  : No
Forced                                   : No

Audio #3
ID                                       : 4
Format                                   : AC-3
Format/Info                              : Audio Coding 3
Mode extension                           : CM (complete main)
Format settings, Endianness              : Big
Muxing mode                              : Header stripping
Codec ID                                 : A_AC3
Duration                                 : 23mn 47s
Bit rate mode                            : Constant
Bit rate                                 : 256 Kbps
Channel count                            : 2 channels
Channel positions                        : Front: L R
Sampling rate                            : 48.0 KHz
Bit depth                                : 16 bits
Compression mode                         : Lossy
Stream size                              : 43.5 MiB (8%)
Title                                    : Original
Language                                 : Japanese
Default                                  : No
Forced                                   : No

Text
ID                                       : 5
Format                                   : ASS
Codec ID                                 : S_TEXT/ASS
Codec ID/Info                            : Advanced Sub Station Alpha
Compression mode                         : Lossless
Language                                 : Russian
Default                                  : No
Forced                                   : No



Скриншоты: - показать

Извините, фастпик глючит попробую вечером



Дядя Шарик
Релиз от
источник
ARRU & REBUILD ARRU   &   AnimeGroup & RACER RS
А вы ничего не забыли?
наверх

Последние поступления