ARRU





Evangelion: 3.0 You Can (Not) Redo
Евангелион 3.33: Ты (не) исправишь (2012)(фильм третий)[BDRip][HWP]   Bookmark


Скачать вход / регистрация
Тема на форуме Обсудить фильм (комментариев: 721)
Обсуждение раздачи (комментариев: 41)
ОписаниеEvangelion: 3.0 You Can (Not) Redo / Евангелион 3.33: Ты (не) исправишь (2012)(фильм третий)[BDRip][HWP]
Оригинальное название: Evangelion Shin Gekijouban: Q
Английское название: Evangelion: 3.0 You Can (Not) Redo
Русское название: Евангелион 3.33: Ты (не) исправишь / Евангелион По-Новому: Q
Страна: Япония
Год выпуска: 2012
Жанр: фантастика, меха, драма
Категория: Movie
Количество эпизодов: 1 эпизод
Продолжительность: 95 минут
Режиссёр: Анно Хидэаки
Автор оригинала: Анно Хидэаки
Студия: Studio Khara


Описание:
После событий второго фильма, Икари Синдзи пробуждается в новом мире. Он не понимает, что происходит, но постепенно ему открывается пугающая истина. В результате Синдзи придется снова сражаться с ангелами вместе с неожиданными союзниками, преодолевая сопротивление бывших друзей. И снова судьба бросит его на передовую войны и заставит принимать решение за всё человечество. Что же он выберет в этот раз?

Источник рипа: BD-Rip
Автор рипа\энкод: Renmei Rei
Тип видео: Без хардсаба
Контейнер: AVI
Видео: XviD (Build 73) | 720 x 304 пикселей | 24,000 кадра/сек | ~1200 Кбит/сек ;

Аудио:
RUS: AC-3 | 48.0 КГц | стерео | 256 Кбит/сек;
JAP:  AC-3 | 48.0 КГц | 6 каналов | 448 Кбит/сек

Субтитры: русские | отдельно (SRT, SSA)
Перевод: Аsuka-joy
Корректура: Rosetau, SerjHL

Озвучивание: любительский многоголосый (муж./жен.) от MifSnaiper & KroshkaRu , Molodoy & NASTR

MediaInfo: - показать
Общее
Полное имя                               : D:\Video\HWP\[AnimeReactor.RU] Evangelion 3.33 You Can Not Redo (movie)[BDRip][HWP]\Evangelion 3.33 You Can Not Redo [720x304 XviD AC3x2][AnimeReactor.RU].avi
Формат                                   : AVI
Формат/Информация                        : Audio Video Interleave
Размер файла                             : 1,42 Гбайт
Продолжительность                        : 1 ч. 45 м.
Общий поток                              : 1918 Кбит/сек
Программа кодирования                    : VirtualDubModRus 1.5.10.2 (build 2542/release)
Библиотека кодирования                   : VirtualDubMod build 2542/release

Видео
Идентификатор                            : 0
Формат                                   : MPEG-4 Visual
Профиль формата                          : Advanced Simple@L5
Параметр BVOP формата                    : 2
Параметр QPel формата                    : Нет
Параметр GMC формата                     : Без точки перехода
Параметр матрицы формата                 : Default (H.263)
Идентификатор кодека                     : XVID
Идентификатор кодека/Подсказка           : XviD
Продолжительность                        : 1 ч. 45 м.
Битрейт                                  : 1199 Кбит/сек
Ширина                                   : 720 пикселей
Высота                                   : 304 пикселя
Соотношение сторон                       : 2,35:1
Частота кадров                           : 24,000 кадра/сек
Цветовое пространство                    : YUV
Субдискретизация насыщенности            : 4:2:0
Битовая глубина                          : 8 бит
Тип развёртки                            : Прогрессивная
Метод сжатия                             : С потерями
Бит/(Пиксели*Кадры)                      : 0.228
Размер потока                            : 909 Мбайт (63%)
Библиотека кодирования                   : XviD 73

Аудио #1
Идентификатор                            : 1
Формат                                   : AC-3
Формат/Информация                        : Audio Coding 3
Расширение режима                        : CM (complete main)
Параметр Endianness формата              : Big
Идентификатор кодека                     : 2000
Продолжительность                        : 1 ч. 45 м.
Вид битрейта                             : Постоянный
Битрейт                                  : 256 Кбит/сек
Каналы                                   : 3 канала
Расположение каналов                     : Front: L R,   Back: C
Частота                                  : 44,1 КГц
Битовая глубина                          : 16 бит
Метод сжатия                             : С потерями
Размер потока                            : 194 Мбайт (13%)
Выравнивание                             : Разделение по промежуткам
Продолжительность промежутка             : 42  мс. (1,00 видеокадр)
Время предзагрузки промежутка            : 500  мс.
Заголовок                                : Russian [MifSnaiper & KroshkaRu & Molodoy & NASTR]

Аудио #2
Идентификатор                            : 2
Формат                                   : AC-3
Формат/Информация                        : Audio Coding 3
Расширение режима                        : CM (complete main)
Параметр Endianness формата              : Big
Идентификатор кодека                     : 2000
Продолжительность                        : 1 ч. 45 м.
Вид битрейта                             : Постоянный
Битрейт                                  : 448 Кбит/сек
Каналы                                   : 6 каналов
Расположение каналов                     : Front: L C R, Side: L R, LFE
Частота                                  : 48,0 КГц
Битовая глубина                          : 16 бит
Метод сжатия                             : С потерями
Размер потока                            : 339 Мбайт (23%)
Выравнивание                             : Разделение по промежуткам
Продолжительность промежутка             : 42  мс. (1,00 видеокадр)
Время предзагрузки промежутка            : 500  мс.
Заголовок                                : Japanese [Original]




Скриншоты: - показать

Альтернативные скриншоты: - показать


Дядя Шарик
Релиз от
источник
ARRU & Moscow City Animegroup - MCA & SeM & RenmeiRei & REBUILD ARRU
А вы ничего не забыли?
наверх

Последние поступления