ARRU





Copihan
Копихан [ONA][1 - 7 of XX][DVD-Rip][HWP]FIX   Bookmark


Скачать вход / регистрация
Тема на форуме Обсудить аниме (комментариев: 0)
Обсуждение раздачи (комментариев: 10)
ОписаниеCopihan | Копихан [ONA][1 - 7 of XX][DVD-Rip][HWP]FIX
Оригинальное название: こぴはん
Английское название: Copihan
Русское название: Копихан
Страна: Япония
Год выпуска / период трансляции: c 12.08.2011
Жанр: комедия, школа
Режиссёр: Камата Юсукэ
Категория: ONA
Количество эпизодов: xx
Продолжительность: 6 мин.
Студия:


Описание:
Аниме студия Gonzo объявила на мероприятии Machi Asobi, что она работает с дизайнером персонажей Kei, создателем Хацунэ Мику, над совершенно новым оригинальным аниме проектом под названием Copihan. Проект является комедией-фарса про школу в Токио в 2034 году.

Качество: DVDRip
Автор рипа: не известно
Тип видео: Без хардсаба
Формат видео: AVI
Видео: XviD (MPEG-4) | 640x360 (1.78:1) | 23.976 fps |  ~503 kbps ;
Аудио:
1. RU - VO | MP3 |44.100 kHz | 2 ch | ~128.00 kbps ;
2. JP - MP3 | 44.100 kHz | 2 ch | ~128.00 kbps

Субтитры: RU - soft [SRT, SSA];
Переводчик/Перевод песен/Оформление: Someone
Редактор: Ennis [KBM TeaM]

Озвучивание: Valkrist


MediaInfo: - показать
Общее
Полное имя                               : D:\Video\HWP\Copihan [ONA][6 из х][DVDRip][HWP]\Copihan_ONA_[01_of_XX]_[MCA_&_AnimeReactor_RU].avi
Формат                                   : AVI
Формат/Информация                        : Audio Video Interleave
Размер файла                             : 31,5 Мбайт
Продолжительность                        : 5 м. 41 с.
Общий поток                              : 774 Кбит/сек
Программа кодирования                    : VirtualDubModRus 1.5.10.2 (build 2542/release)
Библиотека кодирования                   : VirtualDubMod build 2542/release

Видео
Идентификатор                            : 0
Формат                                   : MPEG-4 Visual
Профиль формата                          : Advanced Simple@L5
Параметр BVOP формата                    : 3
Параметр QPel формата                    : Да
Параметр GMC формата                     : 3 точки перехода
Параметр матрицы формата                 : Default (H.263)
Режим смешивания                         : Сжатый битовый поток
Идентификатор кодека                     : XVID
Идентификатор кодека/Подсказка           : XviD
Продолжительность                        : 5 м. 41 с.
Битрейт                                  : 504 Кбит/сек
Ширина                                   : 640 пикселей
Высота                                   : 360 пикселей
Соотношение сторон                       : 16:9
Частота кадров                           : 23,976 кадра/сек
Цветовое пространство                    : YUV
Субдискретизация насыщенности            : 4:2:0
Битовая глубина                          : 8 бит
Тип развёртки                            : Прогрессивная
Метод сжатия                             : С потерями
Бит/(Пиксели*Кадры)                      : 0.091
Размер потока                            : 20,5 Мбайт (65%)
Библиотека кодирования                   : XviD 1.2.0.dev47 (UTC 2006-11-01)

Аудио #1
Идентификатор                            : 1
Формат                                   : MPEG Audio
Версия формата                           : Version 1
Профиль формата                          : Layer 3
Режим                                    : Joint stereo
Расширение режима                        : MS Stereo
Идентификатор кодека                     : 55
Идентификатор кодека/Подсказка           : MP3
Продолжительность                        : 5 м. 41 с.
Вид битрейта                             : Постоянный
Битрейт                                  : 128 Кбит/сек
Каналы                                   : 2 канала
Частота                                  : 44,1 КГц
Метод сжатия                             : С потерями
Размер потока                            : 5,19 Мбайт (16%)
Выравнивание                             : Соединение по промежуткам
Продолжительность промежутка             : 42  мс. (1,00 видеокадр)
Время предзагрузки промежутка            : 522  мс.
Заголовок                                : Russian [Valkrist]

Аудио #2
Идентификатор                            : 2
Формат                                   : MPEG Audio
Версия формата                           : Version 1
Профиль формата                          : Layer 3
Идентификатор кодека                     : 55
Идентификатор кодека/Подсказка           : MP3
Продолжительность                        : 5 м. 41 с.
Вид битрейта                             : Постоянный
Битрейт                                  : 128 Кбит/сек
Каналы                                   : 2 канала
Частота                                  : 48,0 КГц
Метод сжатия                             : С потерями
Размер потока                            : 5,21 Мбайт (17%)
Выравнивание                             : Соединение по промежуткам
Продолжительность промежутка             : 42  мс. (1,00 видеокадр)
Время предзагрузки промежутка            : 504  мс.
Заголовок                                : Original [Japanese 2ch]
Библиотека кодирования                   : LAME3.97
Настройки программы                      : -m s -V 4 -q 2 -lowpass 17 -b 128


Скриншоты: - показать

Альтернативные скриншоты: - показать
Дядя Шарик
Релиз от
источник
ARRU & Moscow City Animegroup - MCA & REBUILD ARRU
наверх

Последние поступления