ARRU





Чемпион!
Campione! (TV)(2012)[01-13 из 13][BD-Rip][720p] fix   Bookmark


Скачать вход / регистрация
Тема на форуме Обсудить аниме (комментариев: 13)
Обсуждение раздачи (комментариев: 19)
ОписаниеЧемпион! / Campione! (TV)(2012)[01-13 из 13][BD-Rip][720p] fix
Оригинальное название: カンピオーネ! ~まつろわぬ神々と神殺しの魔王~
Английское название: Campione!
Русское название: Чемпион!

Страна: Япония
Год выпуска / период трансляции: c 06.07.2012 по 28.09.2012
Жанр:  приключения
Количество эпизодов ТВ: 13
Продолжительность: 25 мин

Студия:
Режиссёр: Кусакава Кэйдзё
Автор оригинала: Такэдзуки Дзё

Описание:
Самое страшное существо во Вселенной – японский школьник, вступивший в пору весны юности! Потому 16-летний Годо Кусанаги ничуть не удивился, когда чудаковатый дедушка послал его, не знающего ни дороги, ни языка, в Италию - вернуть старой знакомой некую каменную табличку. Бравый парень тем более не потерялся, когда узнал, что кругом бродят маги, чудища и древние боги – ведь в аниме, манге и ранобэ все рецепты давно расписаны! Потому, победив с помощью чудесной таблички и резковатой красотки Эрики Бланделли персидского бога Веретрагну, Кусанаги спокойно принял божественные способности, став одним из семи «кампионе» - супервоинов, способных поражать даже небожителей. После этого, как и положено, герой вернулся домой и поступил в старшую школу.

Разумеется, Эрика, оказавшаяся рыцарем-магом из тайной организации «Черный крест», последовала за «любимым» в Японию, ибо не хотела терять из виду перспективного парня. Только в стране Ямато тоже не дураки живут, и к Кусанаги соответствующие структуры мастерски «подвели» Юри - застенчивую, но одаренную храмовую жрицу. Итальянцы еще раз усилили гарем героя - ответ хозяев поля был симметричным. Теперь вокруг новоиспеченного «кампионе» собралась такая бригада прекрасных дам, что и судьбы мира спокойно решать можно. Вот только собственная судьба, похоже, бедняге Годо давно не принадлежит!

© Hollow, World Art

Названия эпизодов: - показать

01. История начинается
02. День из жизни правителя
03. Издалека появляется враг
04. Восставшая Афина
05. Неприятные дни
06. Королевская беседа
07. Ветер, дождь, Волк
08. Появление героя
09. Пропавший Король
10. Бушующий король демонов и герой солнца
11. Принцесса-жрица длинного меча
12. Амэ-но муракумо-но цуруги
13. Сказание богоубийцы


Обновлены 10 - 13 серии.

Внимание! В 4-ой серии присутствует фрагмент без перевода. Перевод на него в субтитрах.

Качество рипа: BDRip
Автор рипа: Winter - RG Pantheon
Тип видео: Без хардсаба
Контейнер: mkv
Видео: AVC (х264) | 10 bit | 1280x720 pixels | ~4000Kbps | 23.976 fps

Внимание:
Видео 10-битное! Скачайте и установите свежую версию СССР или K-Lite (x32) и смотрите видео с помощью встроенного туда плеера MPC-HC,  или установите сборку KMP с использованием LAV Filters. Как еще один вариант, можно использовать VLC.

Аудио:
RUS: AC3 | 48000Hz | 256 Kbps | 2ch
JAP: Vorbis | 48000Hz | ~265 Kbps | 2ch

Озвучивание: Jerwis
Перевод: Makentosh, Anku
Редактор и оформитель: keit45
Cубтитры: AOS (переводчики: Anku, Makentosh, Minai, редактор/оформление: mutagenb)

MediaInfo: - показать

Общее
Формат                           : Matroska
Версия формата                   : Version 2
Размер файла                     : 1,08 Гбайт
Продолжительность                : 25 м.
Режим общего битрейта            : Переменный
Общий поток                      : 6138 Кбит/сек
Дата кодирования                 : UTC 2013-07-03 04:27:49
Программа кодирования            : mkvmerge v3.4.0 сборка от May 15 2010 09:38:20
Библиотека кодирования           : libebml v0.8.0 + libmatroska v0.9.0

Видео
Идентификатор                    : 1
Формат                           : AVC
Формат/Информация                : Advanced Video Codec
Профиль формата                  : High 10@L4.1
Параметр CABAC формата           : Да
Параметр ReFrames формата        : 9 кадров
Идентификатор кодека             : V_MPEG4/ISO/AVC
Продолжительность                : 25 м.
Битрейт                          : 5568 Кбит/сек
Ширина                           : 1280 пикселей
Высота                           : 720 пикселей
Соотношение сторон               : 16:9
Частота кадров                   : 23,976 кадра/сек
Цветовое пространство            : YUV
Субдискретизация насыщенности    : 4:2:0
Битовая глубина                  : 10 бит
Тип развёртки                    : Прогрессивная
Бит/(Пиксели*Кадры)              : 0.252
Размер потока                    : 1004 Мбайт (91%)
Заголовок                        : rip by Winter
Библиотека кодирования           : x264 core 125 r2200 999b753
Язык                             : Japanese
Default                          : Да
Forced                           : Нет

Аудио #1
Идентификатор                    : 2
Формат                           : AC-3
Формат/Информация                : Audio Coding 3
Расширение режима                : CM (complete main)
Идентификатор кодека             : A_AC3
Продолжительность                : 25 м.
Вид битрейта                     : Постоянный
Битрейт                          : 192 Кбит/сек
Каналы                           : 2 канала
Расположение каналов             : Front: L R
Частота                          : 48,0 КГц
Битовая глубина                  : 16 бит
Метод сжатия                     : С потерями
Размер потока                    : 34,6 Мбайт (3%)
Заголовок                        : Jerwis
Язык                             : Russian
Default                          : Да
Forced                           : Нет

Аудио #2
Идентификатор                    : 3
Формат                           : Vorbis
Параметр Floor формата           : 1
Идентификатор кодека             : A_VORBIS
Продолжительность                : 25 м.
Вид битрейта                     : Переменный
Битрейт                          : 256 Кбит/сек
Каналы                           : 2 канала
Частота                          : 48,0 КГц
Метод сжатия                     : С потерями
Размер потока                    : 46,2 Мбайт (4%)
Заголовок                        : Original
Библиотека кодирования           : libVorbis (Schaufenugget) (20101101 (Schaufenugget))
Язык                             : Japanese
Default                          : Нет
Forced                           : Нет

Текст #1
Идентификатор                    : 4
Формат                           : ASS
Идентификатор кодека             : S_TEXT/ASS
Идентификатор кодека/Информация  : Advanced Sub Station Alpha
Метод сжатия                     : Без потерь
Заголовок                        : AOS (надписи)
Язык                             : Russian
Default                          : Да
Forced                           : Нет

Текст #2
Идентификатор                    : 5
Формат                           : ASS
Идентификатор кодека             : S_TEXT/ASS
Идентификатор кодека/Информация  : Advanced Sub Station Alpha
Метод сжатия                     : Без потерь
Заголовок                        : AOS
Язык                             : Russian
Default                          : Нет
Forced                           : Нет


Скриншоты: - показать



От себя:
Данный релиз был предоставлен товарищем Aglenn, за что ему огромное спасибо.
Дядя Шарик
Релиз от
источник
ARRU & REBUILD ARRU
А вы ничего не забыли?
наверх

Последние поступления