ARRU





Bakumatsu Kikansetsu Irohanihoheto
Борьба за власть времён бакумацу (2007)[1-26 из 26][DVDRip][HWP]   Bookmark


Скачать вход / регистрация
Тема на форуме Обсудить аниме (комментариев: 11)
Обсуждение раздачи (комментариев: 133)
ОписаниеBakumatsu Kikansetsu Irohanihoheto / Борьба за власть времён бакумацу (2007)[1-26 из 26][DVDRip][HWP]
Оригинальное название: Bakumatsu Kikansetsu Irohanihoheto / 関説 いろはにほへと
Русское название: Борьба за власть времён бакумацу - никто не вечен
Страна: Япония
Период трансляции: c 06.10.2006 по 06.04.2007
Жанр: приключения, история, фэнтези, сёнэн
Категория: TV  
Количество эпизодов: 26
Продолжительность: 25 мин
Режиссёр: Такахаси Рёсукэ   (Флаг, 7 самураев,Гасараки,Бродяга Кэнсин ТВ и ОВА)
Сценарий: Миясита Дзюнъити( Проект Супер-руки)
Автор оригинала:Такахаси Рёсукэ(Флаг,Гасараки,Синяя порода ТВ)
Композитор: Фукасава Хидэюки
Студия: Bandai Visual, Sunrise


Описание:
Век мечей и самурайских традиций подходит к концу, наплыв западной культуры, разбавил собой истинную культуру Японии. Войны продолжаются, в схватках гибнут и страдают люди, и есть те кому это на руку, но в частности история не об этом…
Глава завоевания – один из центральных персонажей, таинственный вестник хаоса и смятения, войн и раздоров, этот фактор который соединяет воедино все желания власти, смятение, страх и прочие чувства сбивающие людей с истинного пути, должен быть запечатан мечём Вечного Убийцы…Две силы предназначены для того, чтобы столкнуться друг с другом, огонь вражды и мести и вечный странник…

Названия эпизодов:
01. Star of Calamity
02. The Earth-Splitting Sword Laughs
03. Ballad of Stone Crane Mansion
04. Anecdote of An Undersurfaced Scandal
05. Shureiki Unleashed
06. The Closing Performance Burns
07. Soutetsu Moves
08. Satisfactions for Revenge Reach
09. The Black Cat Cries
10. Ueno Falls
11. The Troupe Again at a Provisional Stage
12. Ryouma's Message
13. Head of the Conqueror's Intimacy
14. To The North
15. The Secret Sword Resonates
16. Accompaniment of Four People
17. Unnecessary Deliberation
18. Pathetic Destiny
19. Bright Inverted Pentagram
20. There Were Waves
21. Crossing Over the Strait
22. An Encounter in the North
23. Hakodate is Red
24. Irohanihoheto
25. The Pentagon Castle Enclosure Surfaces
26. To Go Towards the Sea


Источник рипа: DVD-Rip [HQR]
Автор рипа\энкод: Renmei Rei
Тип видео: Без хардсаба
Контейнер: AVI
Видео: XviD (Build 73) | 720 x 404 пикселей | 23,976 кадра/сек | ~1500 Кбит/сек ;

Аудио:
RUS:  mp3 | 44.1 КГц | стерео | 126 Кбит/сек;
JAP:  AC-3 | 48.0 КГц | стерео | 256 Кбит/сек

Субтитры: русские | отдельно (SRT, SSA)[Advantage]
Перевод: Cloud & Spiritovod & Blaise & infect3d

Озвучивание: любительский одноголосый (муж.) от Cuba77

MediaInfo: - показать
Общее
Полное имя                               : D:\Video\HWP\[AnimeReactor.RU] Bakumatsu Kikansetsu Irohanihoheto [1-26 of 26][DVDRip][HWP]\Bakumatsu Kikansetsu Irohanihoheto [01 of 26][DVDRip][720x404 XviD mp3 AC3][Cuba77 & AnimeReactor.RU].avi
Формат                                   : AVI
Формат/Информация                        : Audio Video Interleave
Размер файла                             : 327 Мбайт
Продолжительность                        : 24 м.
Общий поток                              : 1898 Кбит/сек
Программа кодирования                    : VirtualDubModRus 1.5.10.2 (build 2542/release)
Библиотека кодирования                   : VirtualDubMod build 2542/release

Видео
Идентификатор                            : 0
Формат                                   : MPEG-4 Visual
Профиль формата                          : Advanced Simple@L5
Параметр BVOP формата                    : 2
Параметр QPel формата                    : Нет
Параметр GMC формата                     : Без точки перехода
Параметр матрицы формата                 : Default (H.263)
Идентификатор кодека                     : XVID
Идентификатор кодека/Подсказка           : XviD
Продолжительность                        : 24 м.
Битрейт                                  : 1500 Кбит/сек
Ширина                                   : 720 пикселей
Высота                                   : 404 пикселя
Соотношение сторон                       : 16:9
Частота кадров                           : 23,976 кадра/сек
Цветовое пространство                    : YUV
Субдискретизация насыщенности            : 4:2:0
Битовая глубина                          : 8 бит
Тип развёртки                            : Прогрессивная
Метод сжатия                             : С потерями
Бит/(Пиксели*Кадры)                      : 0.215
Размер потока                            : 258 Мбайт (79%)
Библиотека кодирования                   : XviD 73

Аудио #1
Идентификатор                            : 1
Формат                                   : MPEG Audio
Версия формата                           : Version 1
Профиль формата                          : Layer 3
Режим                                    : Joint stereo
Расширение режима                        : MS Stereo
Идентификатор кодека                     : 55
Идентификатор кодека/Подсказка           : MP3
Продолжительность                        : 24 м.
Вид битрейта                             : Постоянный
Битрейт                                  : 128 Кбит/сек
Каналы                                   : 2 канала
Частота                                  : 44,1 КГц
Метод сжатия                             : С потерями
Размер потока                            : 22,0 Мбайт (7%)
Выравнивание                             : Разделение по промежуткам
Продолжительность промежутка             : 42  мс. (1,00 видеокадр)
Время предзагрузки промежутка            : 500  мс.
Заголовок                                : Russian [Cuba77]

Аудио #2
Идентификатор                            : 2
Формат                                   : AC-3
Формат/Информация                        : Audio Coding 3
Расширение режима                        : CM (complete main)
Параметр Endianness формата              : Big
Идентификатор кодека                     : 2000
Продолжительность                        : 24 м.
Вид битрейта                             : Постоянный
Битрейт                                  : 256 Кбит/сек
Каналы                                   : 2 канала
Расположение каналов                     : Front: L R
Частота                                  : 48,0 КГц
Битовая глубина                          : 16 бит
Метод сжатия                             : С потерями
Размер потока                            : 44,1 Мбайт (13%)
Выравнивание                             : Разделение по промежуткам
Продолжительность промежутка             : 42  мс. (1,00 видеокадр)
Время предзагрузки промежутка            : 500  мс.
Заголовок                                : Japanese [Original]


Скриншоты: - показать

Альтернативные скриншоты: - показать


Дядя Шарик
Релиз от
источник
ARRU & Cuba77 & RenmeiRei & REBUILD ARRU
А вы ничего не забыли?
наверх

Последние поступления