ARRU





Sword Art Online
Исскуство меча Онлайн (TV)(2012)[01-25 из 25][BD-Rip][720p]   Bookmark


Скачать вход / регистрация
Тема на форуме Обсудить аниме (комментариев: 581)
Обсуждение раздачи (комментариев: 105)
ОписаниеSword Art Online / Исскуство меча Онлайн (TV)(2012)[01-25 из 25][BD-Rip][720p]
Оригинальное название: ソードアート・オンライン
Английское название: Sword Art Online
Русское название: Искусство Меча Онлайн

Страна: Япония
Год выпуска / период трансляции: c 08.07.2012 по 23.12.2012
Жанр:  приключения
Количество эпизодов ТВ: 25
Продолжительность: 25 мин

Студия:
Режиссёр: Ито Томохико
Автор оригинала: Ито Томохико

Описание:
В начале XXI века случилась ожидаемая сенсация – некий японский гений создал ролевую игру с абсолютной виртуальной реальностью. Неудивительно, что «Искусство меча онлайн» обрело бешеную популярность, и 10 тысяч счастливчиков, кому достался первый тираж, в назначенный день и час разом оказались в игровом мире, собравшись в Городе Начал. Тут лукавый создатель, явившийся в виде огромной тени, и огорошил клиентов – оказывается, он задумал эксперимент, и выйти из виртуала можно, лишь когда кто-то пройдет игру до конца! Гибель в игре означает смерть в реальном мире, работать надо на полном серьезе – с этими словами злой гений удалился, а собравшиеся быстро поняли, что он прав.

Незадачливые игроки отреагировали по-разному: кто впал в отчаяние, кто стал сбиваться в группы, а кто-то решил жить сам по себе. В число последних попал и Кирито – сирота, который ничего не потерял. Более того, будучи бета-тестером и опытным игроком, Кирито быстро продвинулся, обретя славу как Черный Мечник. С одной стороны, парень сторонился общения, не желая больше заводить и терять близких; с другой – жить в игре и быть свободным от людей нельзя, особенно от таких, как красавица Асуна по прозвищу Вспышка! В общем, пока что Кирито, Асуна, другие герои и злодеи воюют на переднем крае, а мы верим, что они пройдут не только «Искусство меча», но и еще много интересных игр и миров!

© Hollow, World Art

Названия эпизодов: - показать

01. Мир мечей.
02. Битер.
03. Красноносый олень.
04. Чёрный Мечник.
05. Преступление внутри стен.
06. Призрачный Мститель.
07. Тепло твоего сердца
08. Танец чёрного и белого
09. Синеглазый демон
11. Девочка утренней росы
12. Сердце Юи
13. Глубины ада
14. Падение мира
15. Возвращение
16. Край фей
17. Пленённая королева
18. К Иггдрасилю
19. Коридор Лугру
20. Генерал бушующего пламени
21. Правда об Альвхейме
22. Главный квест
23. Узы
24. Фальшивый герой
25. Семя мира


Качество рипа: BDRip
Автор рипа: Yousei-raws
Тип видео: Без хардсаба
Контейнер: mkv
Видео: AVC (х264) | 10 bit | 1280x720 pixels | ~2900Kbps | 23.976 fps

Внимание:
Видео 10-битное! Скачайте и установите свежую версию СССР или K-Lite (x32) и смотрите видео с помощью встроенного туда плеера MPC-HC,  или установите сборку KMP с использованием LAV Filters. Как еще один вариант, можно использовать VLC.

Аудио:
RUS: AC3 | 48000Hz | 192 Kbps | 2ch
JAP: Vorbis | 48000Hz | ~265 Kbps | 2ch

Озвучивание: Valkrist & Kedra
Перевод: Evafan
Редактор и оформитель: Stan WarHammer
QC: Enma & SeeR

MediaInfo: - показать

Общее
Формат                           : Matroska
Версия формата                   : Version 2
Размер файла                     : 582 Мбайт
Продолжительность                : 23 м.
Режим общего битрейта            : Переменный
Общий поток                      : 3434 Кбит/сек
Дата кодирования                 : UTC 2013-07-03 04:43:53
Программа кодирования            : mkvmerge v3.4.0 сборка от May 15 2010 09:38:20
Библиотека кодирования           : libebml v0.8.0 + libmatroska v0.9.0

Видео
Идентификатор                    : 1
Формат                           : AVC
Формат/Информация                : Advanced Video Codec
Профиль формата                  : High 10@L4.1
Параметр CABAC формата           : Да
Параметр ReFrames формата        : 9 кадров
Идентификатор кодека             : V_MPEG4/ISO/AVC
Продолжительность                : 23 м.
Битрейт                          : 2918 Кбит/сек
Ширина                           : 1280 пикселей
Высота                           : 720 пикселей
Соотношение сторон               : 16:9
Частота кадров                   : 23,976 кадра/сек
Цветовое пространство            : YUV
Субдискретизация насыщенности    : 4:2:0
Битовая глубина                  : 10 бит
Тип развёртки                    : Прогрессивная
Бит/(Пиксели*Кадры)              : 0.132
Размер потока                    : 495 Мбайт (85%)
Заголовок                        : rip by Yousei-raws
Библиотека кодирования           : x264 core 125 r2200 999b753
Default                          : Да
Forced                           : Нет

Аудио #1
Идентификатор                    : 2
Формат                           : AC-3
Формат/Информация                : Audio Coding 3
Расширение режима                : CM (complete main)
Идентификатор кодека             : A_AC3
Продолжительность                : 23 м.
Вид битрейта                     : Постоянный
Битрейт                          : 192 Кбит/сек
Каналы                           : 2 канала
Расположение каналов             : Front: L R
Частота                          : 48,0 КГц
Битовая глубина                  : 16 бит
Метод сжатия                     : С потерями
Размер потока                    : 32,6 Мбайт (6%)
Заголовок                        : Valkrist & Kedra
Язык                             : Russian
Default                          : Да
Forced                           : Нет

Аудио #2
Идентификатор                    : 3
Формат                           : Vorbis
Параметр Floor формата           : 1
Идентификатор кодека             : A_VORBIS
Продолжительность                : 23 м.
Вид битрейта                     : Переменный
Битрейт                          : 256 Кбит/сек
Каналы                           : 2 канала
Частота                          : 48,0 КГц
Метод сжатия                     : С потерями
Размер потока                    : 43,4 Мбайт (7%)
Заголовок                        : Original
Библиотека кодирования           : libVorbis (Schaufenugget) (20101101 (Schaufenugget))
Язык                             : Japanese
Default                          : Нет
Forced                           : Нет

Текст #1
Идентификатор                    : 4
Формат                           : ASS
Идентификатор кодека             : S_TEXT/ASS
Идентификатор кодека/Информация  : Advanced Sub Station Alpha
Метод сжатия                     : Без потерь
Заголовок                        : HR & Stan WarHammer (надписи)
Язык                             : Russian
Default                          : Да
Forced                           : Нет

Текст #2
Идентификатор                    : 5
Формат                           : ASS
Идентификатор кодека             : S_TEXT/ASS
Идентификатор кодека/Информация  : Advanced Sub Station Alpha
Метод сжатия                     : Без потерь
Заголовок                        : HR & Stan WarHammer
Язык                             : Russian
Default                          : Нет
Forced                           : Нет


Скриншоты: - показать



От себя:
Данный релиз был предоставлен товарищем Aglenn, за что ему огромное спасибо.
Дядя Шарик
Релиз от
источник
ARRU & Moscow City Animegroup - MCA & REBUILD ARRU
А вы ничего не забыли?
наверх

Последние поступления