ARRU





Full Metal Panic! TV-1
Стальная тревога! (первый сезон)(2002)[01-24 из 24][BDRip][HWP]   Bookmark


Скачать вход / регистрация
Тема на форуме Обсудить аниме (комментариев: 269)
ОписаниеFull Metal Panic! TV-1 / Стальная тревога! (первый сезон)(2002)[01-24 из 24][BDRip][HWP]
Оригинальное название: フルメタル・パニック!
Английское название: Full Metal Panic!
Русское название: Стальная тревога!
Страна: Япония
Год выпуска: 2002
Жанр: приключения, комедия, романтика, меха
Категория: TV
Количество эпизодов: 24 эпизода
Продолжительность: 25 минут
Режиссёр: Тигира Койти
Автор оригинала: Гато Сёдзи
Студия:


Описание:
Старшеклассница Канамэ Тидори оказывается в эпицентре невероятных приключений! За девушкой ведет охоту террористическая организация, чьи руководители убеждены, что Тидори обладает уникальными сверхъестественными способностями. На защиту школьницы встает секретная военизированная организация МИФРИЛ и ее агент Сосукэ Сагара. Сможет ли он защищать Тидори так, чтобы та не узнала всю правду - или доведет ее до белого каления, притворяясь помешанным на войне одноклассником?


Названия эпизодов: - показать

1. Мне не даёт покоя один сержант
2. Я хочу тебя защитить
3. Бельевая тревога
4. Захват
5. Виспард — те, кому шепчут
6. Ещё живы
7. Юноша встречает девушку
8. Остановись, мгновение!
9. Опасное убежище
10. Беги, беги, беги!
11. Пробуждение Бегемота
12. Бессонная ночь
13. Рок-н-ролл кошки и котёнка
14. В Нарасина сейчас жарко?
15. Ветер, гуляющий по моей Родине. Часть 1
16. Ветер, гуляющий по моей Родине. Часть 2
17. Ветер, гуляющий по моей Родине. Часть 3
18. Вечеринка на дне моря
19. Задействовать шестого и седьмого
20. Пламя Венома
21. Хитрая ловушка
22. Попрыгунчик в коробке
23. Поле сражения титанов
24. Взмыть в небо


Источник рипа: BD-Rip [Tormaid]
Автор рипа\энкод: Renmei Rei
Тип видео: Без хардсаба
Контейнер: AVI
Видео: XviD (Build 73) | 720 x 540 пикселей | 23,976 кадра/сек | ~1500 Кбит/сек ;

Аудио:
RUS: AC-3 | 48.0 КГц | 6 каналов | 448 Кбит/сек;
JAP:  AC-3 | 48.0 КГц | стерео | 256 Кбит/сек

Озвучивание: професиональный многоголосый закадровый  от MC Entertainment
Субтитры: - показать
Тех. данные: русские | отдельно (полные)(SRT, SSA)
Переводчик: Witwood [TASIW]



MediaInfo: - показать
Общее
Полное имя                               : D:\Video\HWP\[AnimeReactor.RU] Full Metal Panic! (TV-1)[1-24 of 24][BDRip][HWP]\Full Metal Panic! [01 of 24][BDRip][720x540 XviD AC3x2][AnimeReactor.RU].avi
Формат                                   : AVI
Формат/Информация                        : Audio Video Interleave
Размер файла                             : 362 Мбайт
Продолжительность                        : 22 м.
Общий поток                              : 2217 Кбит/сек
Программа кодирования                    : VirtualDubModRus 1.5.10.2 (build 2542/release)
Библиотека кодирования                   : VirtualDubMod build 2542/release

Видео
Идентификатор                            : 0
Формат                                   : MPEG-4 Visual
Профиль формата                          : Advanced Simple@L5
Параметр BVOP формата                    : 2
Параметр QPel формата                    : Нет
Параметр GMC формата                     : Без точки перехода
Параметр матрицы формата                 : Default (H.263)
Идентификатор кодека                     : XVID
Идентификатор кодека/Подсказка           : XviD
Продолжительность                        : 22 м.
Битрейт                                  : 1500 Кбит/сек
Ширина                                   : 720 пикселей
Высота                                   : 540 пикселей
Соотношение сторон                       : 4:3
Частота кадров                           : 23,976 кадра/сек
Цветовое пространство                    : YUV
Субдискретизация насыщенности            : 4:2:0
Битовая глубина                          : 8 бит
Тип развёртки                            : Прогрессивная
Метод сжатия                             : С потерями
Бит/(Пиксели*Кадры)                      : 0.161
Размер потока                            : 245 Мбайт (68%)
Библиотека кодирования                   : XviD 73

Аудио #1
Идентификатор                            : 1
Формат                                   : AC-3
Формат/Информация                        : Audio Coding 3
Расширение режима                        : CM (complete main)
Параметр Endianness формата              : Big
Идентификатор кодека                     : 2000
Продолжительность                        : 22 м.
Вид битрейта                             : Постоянный
Битрейт                                  : 448 Кбит/сек
Каналы                                   : 6 каналов
Расположение каналов                     : Front: L C R, Side: L R, LFE
Частота                                  : 48,0 КГц
Битовая глубина                          : 16 бит
Метод сжатия                             : С потерями
Размер потока                            : 73,1 Мбайт (20%)
Выравнивание                             : Разделение по промежуткам
Продолжительность промежутка             : 42  мс. (1,00 видеокадр)
Время предзагрузки промежутка            : 500  мс.
Заголовок                                : Russian [MC Entertainment]

Аудио #2
Идентификатор                            : 2
Формат                                   : AC-3
Формат/Информация                        : Audio Coding 3
Расширение режима                        : CM (complete main)
Параметр Endianness формата              : Big
Идентификатор кодека                     : 2000
Продолжительность                        : 22 м.
Вид битрейта                             : Постоянный
Битрейт                                  : 256 Кбит/сек
Каналы                                   : 2 канала
Расположение каналов                     : Front: L R
Частота                                  : 48,0 КГц
Битовая глубина                          : 16 бит
Метод сжатия                             : С потерями
Размер потока                            : 41,8 Мбайт (12%)
Выравнивание                             : Разделение по промежуткам
Продолжительность промежутка             : 42  мс. (1,00 видеокадр)
Время предзагрузки промежутка            : 500  мс.
Заголовок                                : Japanese [Original]


Скриншоты: - показать

Альтернативные скриншоты: - показать


Дядя Шарик
Релиз от
источник
ARRU & RenmeiRei & REBUILD ARRU
А вы ничего не забыли?
наверх

Последние поступления