ARRU





Black Lagoon TV-1, TV-2
Чёрная лагуна (первый, второй сезоны)(2006)[1-24 из 24][BD-Rip][HWP]   Bookmark


Скачать вход / регистрация
Тема на форуме Обсудить аниме (комментариев: 235)
Обсуждение раздачи (комментариев: 235)
Смотреть онлайн
ОписаниеBlack Lagoon TV-1, TV-2 / Чёрная лагуна (первый, второй сезоны)(2006)[1-24 из 24][BD-Rip][HWP]
Оригинальное название: ブラック・ラグーン
Английское название: BLACK LAGOON
Русское название: Черная лагуна / Пираты "Чёрной лагуны"
Страна: Япония
Год выпуска / период трансляции: 2006
Жанр: приключения, драма, комедия, сёнэн
Количество эпизодов ТВ: 24 (первый и второй сезоны)
Продолжительность: 25 мин
Режиссёр: Катабути Сунао
Автор оригинала: Хироэ Рэй
Студия: Mad House


Описание:
Джентльмены ищут удачу под палящим южным солнцем – и ищут ее, само собой, в карманах других джентльменов. Йо-хо-хо, это жизнь. Кто выстрелил первым, смеется последним. Свобода для сильных, деньги для везучих, море для тех, кому омерзела суша. Налеты, перевозка оружия, эскорт заложников и укрывательство преступников. Всё это безнравственно и – йо-хо-хо! – всё это выгодно. Такими занятиями не брезговали многие настоящие мужчины во все времена – критяне, греки, викинги, сэр Генри Морган и пр. Их наследники, экипаж торпедоносца «Черная Лагуна», деятельно исполняет свои прямые пиратские обязанности.
World Art

Названия эпизодов:
Первый сезон
01. The Black Lagoon
02. Mangrove Heaven
03. Ring-Ding Ship Chase
04. Die Rückkehr des Adlers
05. Eagle Hunting and Hunting Eagles
06. Moonlit Hunting Grounds
07. Calm Down,Two Men
08. Rasta Blasta
09. Maid to Kill
10. The Unstoppable Chambermaid
11. Lock'n Load Revolution
12. Guerrillas in the Jungle

Второй сезон
13. The Vampire Twins Comen
14. Bloodsport Fairytale
15. Swan Song at Dawn
16. Green back Jane
17. The Roanapur Freakshow Circus
18. Mr Benny's Good Fortune
19. Fujiyama Gangst a Paradise
20. The Succession
21. Two Father's Little Soldier Girls
22. The Dark Tower
23. Snow White's Payback
24. The Gunslingers


Источник рипа: BD-Rip [A_warrior_of_light & Pustovetov]
Автор рипа\энкод: Renmei Rei
Тип видео: Без хардсаба
Контейнер: AVI
Видео: XviD (Build 73) | 720 x 404 пикселей | 23,976 кадра/сек | ~1500 Кбит/сек ;

Аудио:
RUS1: AC-3 | 48.0 КГц | 6 каналов | 384 Кбит/сек - многоголосый професиональный закадровый от MC Entertainment
RUS2: AC-3 | 44.1 КГц | стерео | 192 Кбит/сек - одноголосый любительский (муж.) от AZAZELo
JAP:  AC-3 | 48.0 КГц | стерео | 384 Кбит/сек - оригинал

Субтитры: - показать
Тех. данные: русские | отдельно (полные)(SRT, SSA)

(SRT 1-24 of 24)
Переводчик: MC Entertainment

(SSA 1-12)
Переводчик: Santa (SSA 1-6), Orlangur (7-12)
Редактор/Оформление:  [dimon] (1-6), Dusker (7-12)

(SSA 13-29)
Переводчик/Редактор/Перевод песен: Looriental [Dreamers Team]
Редактор: bernaut
Редактор/Тайм-код/Оформление: Inhesion
Переводчик: xa0c
Тайм-код: Святослав


MediaInfo: - показать
Общее
Полное имя                               : D:\Video\HWP\[AnimeReactor.RU] Black Lagoon (TV 1-2)[1-24 of 24][BDRip][HWP]\Black Lagoon [01 of 24][BDRip][720x404 XviD AC3x3][AnimeReactor.RU].avi
Формат                                   : AVI
Формат/Информация                        : Audio Video Interleave
Размер файла                             : 416 Мбайт
Продолжительность                        : 23 м.
Общий поток                              : 2478 Кбит/сек
Программа кодирования                    : VirtualDubModRus 1.5.10.2 (build 2542/release)
Библиотека кодирования                   : VirtualDubMod build 2542/release

Видео
Идентификатор                            : 0
Формат                                   : MPEG-4 Visual
Профиль формата                          : Advanced Simple@L5
Параметр BVOP формата                    : 2
Параметр QPel формата                    : Нет
Параметр GMC формата                     : Без точки перехода
Параметр матрицы формата                 : Default (H.263)
Идентификатор кодека                     : XVID
Идентификатор кодека/Подсказка           : XviD
Продолжительность                        : 23 м.
Битрейт                                  : 1499 Кбит/сек
Ширина                                   : 720 пикселей
Высота                                   : 404 пикселя
Соотношение сторон                       : 16:9
Частота кадров                           : 23,976 кадра/сек
Цветовое пространство                    : YUV
Субдискретизация насыщенности            : 4:2:0
Битовая глубина                          : 8 бит
Тип развёртки                            : Прогрессивная
Метод сжатия                             : С потерями
Бит/(Пиксели*Кадры)                      : 0.215
Размер потока                            : 252 Мбайт (60%)
Библиотека кодирования                   : XviD 73

Аудио #1
Идентификатор                            : 1
Формат                                   : AC-3
Формат/Информация                        : Audio Coding 3
Расширение режима                        : CM (complete main)
Параметр Endianness формата              : Big
Идентификатор кодека                     : 2000
Продолжительность                        : 23 м.
Вид битрейта                             : Постоянный
Битрейт                                  : 384 Кбит/сек
Каналы                                   : 6 каналов
Расположение каналов                     : Front: L C R, Side: L R, LFE
Частота                                  : 48,0 КГц
Битовая глубина                          : 16 бит
Метод сжатия                             : С потерями
Размер потока                            : 64,4 Мбайт (15%)
Выравнивание                             : Разделение по промежуткам
Продолжительность промежутка             : 42  мс. (1,00 видеокадр)
Время предзагрузки промежутка            : 500  мс.
Заголовок                                : Russian [MC Entertainment]

Аудио #2
Идентификатор                            : 2
Формат                                   : AC-3
Формат/Информация                        : Audio Coding 3
Расширение режима                        : CM (complete main)
Параметр Endianness формата              : Big
Идентификатор кодека                     : 2000
Продолжительность                        : 23 м.
Вид битрейта                             : Постоянный
Битрейт                                  : 192 Кбит/сек
Каналы                                   : 2 канала
Расположение каналов                     : Front: L R
Частота                                  : 44,1 КГц
Битовая глубина                          : 16 бит
Метод сжатия                             : С потерями
Размер потока                            : 32,2 Мбайт (8%)
Выравнивание                             : Разделение по промежуткам
Продолжительность промежутка             : 42  мс. (1,00 видеокадр)
Время предзагрузки промежутка            : 500  мс.
Заголовок                                : Russian [AZAZELo]

Аудио #3
Идентификатор                            : 3
Формат                                   : AC-3
Формат/Информация                        : Audio Coding 3
Расширение режима                        : CM (complete main)
Параметр Endianness формата              : Big
Идентификатор кодека                     : 2000
Продолжительность                        : 23 м.
Вид битрейта                             : Постоянный
Битрейт                                  : 384 Кбит/сек
Каналы                                   : 2 канала
Расположение каналов                     : Front: L R
Частота                                  : 48,0 КГц
Битовая глубина                          : 16 бит
Метод сжатия                             : С потерями
Размер потока                            : 64,4 Мбайт (15%)
Выравнивание                             : Разделение по промежуткам
Продолжительность промежутка             : 42  мс. (1,00 видеокадр)
Время предзагрузки промежутка            : 500  мс.
Заголовок                                : Japanese [Original]


Скриншоты: - показать

Альтернативные скриншоты: - показать




Внимание, я исправил ошибку в наименовании сабов. Удалите старые сабы и перекачайте торрент заново
Дядя Шарик
Релиз от
источник
ARRU & RenmeiRei & REBUILD ARRU
А вы ничего не забыли?
наверх

Последние поступления