ARRU





Kotonoha no Niwa
The Garden of Words
Сад слов (фильм)(2013)[BDRip][HWP]   Bookmark


Скачать вход / регистрация
Тема на форуме Обсудить фильм (комментариев: 16)
Обсуждение раздачи (комментариев: 22)
ОписаниеKotonoha no Niwa / The Garden of Words / Сад слов (фильм)(2013)[BDRip][HWP]
Оригинальное название: Kotonoha no Niwa
Английское название: The Garden of Words
Русское название: Сад слов
Страна: Япония
Год выпуска: 2013
Жанр: романтика, драма
Категория: Movie
Количество эпизодов: 1
Продолжительность: 46 минут
Режиссёр: Синкай Макото
Автор оригинала: Синкай Макото
Студия: CoMix Wave Inc.


Описание:
Романтическая лента о взаимоотношениях юного студента Такао, мечтающего стать знаменитым сапожником и женщины по имени Юкино, которая намного старше его. Сюжет примерно таков: Однажды Такао, прогуляв школу, делает наброски моделей в очаровательном японском садике, там он видит загадочную женщину и в дождливые дни они начинают встречаться. Отношения развиваются, они открывают друг другу свои сердца, чувства становятся все глубже. Но сезон дождей скоро приближается к концу...

Источник рипа: BD-Rip
Автор рипа\энкод: Renmei Rei
Тип видео: Без хардсаба
Контейнер: AVI
Видео: XviD (Build 73) | 720 x 404 пикселей | 23,976 кадра/сек | ~1600 Кбит/сек ;

Аудио:
RUS: AC-3 | 48.0 КГц | стерео | 256 Кбит/сек;
JAP:  AC-3 | 48.0 КГц | 6 каналов | 448 Кбит/сек

Субтитры: - показать
Тех. данные: русские | отдельно (полные/вспомогательные)(SRT, SSA)
Переводчик: Алекс Миф [TimeCraft]
Сверка с японским: Himself
Редактор: General TAB, Libra
Тайминг / QC: DJATOM

Озвучивание: любительский многоголосый (жен.\муж.) от NASTR | KroshkaRU | AnaivE | Rise

MediaInfo: - показать
Общее
Полное имя                               : D:\Video\HWP\[AnimeReactor.RU] Kotonoha no Niwa (movie)[BDRip][HWP]\Kotonoha no Niwa (movie)[BDRip][720x404 XviD AC3x3][AnimeReactor.RU].avi
Формат                                   : AVI
Формат/Информация                        : Audio Video Interleave
Размер файла                             : 764 Мбайт
Продолжительность                        : 46 м.
Общий поток                              : 2318 Кбит/сек
Программа кодирования                    : VirtualDubModRus 1.5.10.2 (build 2542/release)
Библиотека кодирования                   : VirtualDubMod build 2542/release

Видео
Идентификатор                            : 0
Формат                                   : MPEG-4 Visual
Профиль формата                          : Advanced Simple@L5
Параметр BVOP формата                    : 2
Параметр QPel формата                    : Нет
Параметр GMC формата                     : Без точки перехода
Параметр матрицы формата                 : Default (H.263)
Идентификатор кодека                     : XVID
Идентификатор кодека/Подсказка           : XviD
Продолжительность                        : 46 м.
Битрейт                                  : 1600 Кбит/сек
Ширина                                   : 720 пикселей
Высота                                   : 404 пикселя
Соотношение сторон                       : 16:9
Частота кадров                           : 23,976 кадра/сек
Цветовое пространство                    : YUV
Субдискретизация насыщенности            : 4:2:0
Битовая глубина                          : 8 бит
Тип развёртки                            : Прогрессивная
Метод сжатия                             : С потерями
Бит/(Пиксели*Кадры)                      : 0.229
Размер потока                            : 527 Мбайт (69%)
Библиотека кодирования                   : XviD 73

Аудио #1
Идентификатор                            : 1
Формат                                   : AC-3
Формат/Информация                        : Audio Coding 3
Расширение режима                        : CM (complete main)
Параметр Endianness формата              : Big
Идентификатор кодека                     : 2000
Продолжительность                        : 46 м.
Вид битрейта                             : Постоянный
Битрейт                                  : 256 Кбит/сек
Каналы                                   : 3 канала
Расположение каналов                     : Front: L R,   Side: C
Частота                                  : 48,0 КГц
Битовая глубина                          : 16 бит
Метод сжатия                             : С потерями
Размер потока                            : 84,3 Мбайт (11%)
Выравнивание                             : Разделение по промежуткам
Продолжительность промежутка             : 42  мс. (1,00 видеокадр)
Время предзагрузки промежутка            : 500  мс.
Заголовок                                : Russian [NASTR | AnaivE | Rise | KroshkaRU ]

Аудио #2
Идентификатор                            : 2
Формат                                   : AC-3
Формат/Информация                        : Audio Coding 3
Расширение режима                        : CM (complete main)
Параметр Endianness формата              : Big
Идентификатор кодека                     : 2000
Продолжительность                        : 46 м.
Вид битрейта                             : Постоянный
Битрейт                                  : 448 Кбит/сек
Каналы                                   : 6 каналов
Расположение каналов                     : Front: L C R, Side: L R, LFE
Частота                                  : 48,0 КГц
Битовая глубина                          : 16 бит
Метод сжатия                             : С потерями
Размер потока                            : 148 Мбайт (19%)
Выравнивание                             : Разделение по промежуткам
Продолжительность промежутка             : 42  мс. (1,00 видеокадр)
Время предзагрузки промежутка            : 500  мс.
Заголовок                                : Japanese [Original]


Скриншоты: - показать

Альтернативные скриншоты: - показать


Дядя Шарик
Релиз от
источник
ARRU & Moscow City Animegroup - MCA & SeM & RenmeiRei & REBUILD ARRU   &   R.G. Genshiken
А вы ничего не забыли?
наверх

Последние поступления