ARRU





Witchblade
Клинок Ведьмы (2006)[01-24 из 24][BDRip][HWP]   Bookmark


Скачать вход / регистрация
Тема на форуме Обсудить аниме (комментариев: 49)
Обсуждение раздачи (комментариев: 15)
ОписаниеWitchblade / Клинок Ведьмы (2006)[01-24 из 24][BDRip][HWP]
Оригинальное название: ウィッチブレイド
Английское название: Witchblade / Witch Blade
Русское название: Клинок Ведьм
Страна: Япония
Год выпуска: 2006
Жанр: приключения, фантастика, драма
Категория: TV
Количество эпизодов: 24
Продолжительность: 25 минут
Режиссёр: Охаси Ёсимицу
Автор оригинала: Марк Силвестри
Студия:


Описание:
После катастрофы, случившейся в Токио и затронувшей весь мир, Масане, находившаяся в эпицентре, очнулась без памяти и с маленький ребенком на руках.
С тех пор они живут как семья. Но нет постоянного дома, места работы, нет денег...
С момента той же катастрофы у Масане на руке остался не снимаемый браслет - Клинок Ведьм, который пробуждает в ней силу и страсть к сражениям, а тут как раз какие-то роботы-маньяки в образе людей бродят по улицам... И однажды, глава влиятельной корпорации делает ей предложение, от которого она не может отказаться, тем более что за работу обещают хорошие деньги, а они ой как нужны, ведь иначе у Масане отнимут дочь!..

Названия эпизодов: - показать

01. Начало
02. Сомнения
03. Вызов
04. Движение
05. Поиск
06. Изменение
07. Уход
08. Взаимность
09. Грусть
10. Взаимодействие
11. Опасность
12. Пленница
13. Разлука
14. Семья Рикко
15. Связи
16. Отдых
17. Замешательство
18. Поворот
19. Чувства
20. Просьба
21. Клятва
22. Рассказ
23. Хаос
24. Свет


Источник рипа: BD-Rip
Автор рипа\энкод: Renmei Rei
Тип видео: Без хардсаба
Контейнер: AVI
Видео: XviD (Build 73) | 720 x 404 пикселей | 23,976 кадра/сек | ~1500 Кбит/сек ;

Аудио:
RUS: AC-3 | 48.0 КГц | стерео | 256 Кбит/сек;
ENG:  AC-3 | 48.0 КГц | 6 каналов | 448 Кбит/сек;
JAP:  AC-3 | 48.0 КГц | стерео | 256 Кбит/сек

Субтитры: русские | отдельно (SRT, SSA)[Dusker, Тюлень]
Озвучено по переводу: 2х2
Озвучивание: профессиональный  многоголосый  от 2х2

MediaInfo: - показать
Общее
Полное имя                               : D:\Video\HWP\[AnimeReactor.RU] Witchblade [1-24 of 24][BDRip][HWP]\Witchblade [01 of 24][BDRip][720x404 XviD AC3x3][AnimeReactor.Ru].avi
Формат                                   : AVI
Формат/Информация                        : Audio Video Interleave
Размер файла                             : 420 Мбайт
Продолжительность                        : 23 м.
Общий поток                              : 2479 Кбит/сек
Программа кодирования                    : VirtualDubModRus 1.5.10.2 (build 2542/release)
Библиотека кодирования                   : VirtualDubMod build 2542/release

Видео
Идентификатор                            : 0
Формат                                   : MPEG-4 Visual
Профиль формата                          : Advanced Simple@L5
Параметр BVOP формата                    : 2
Параметр QPel формата                    : Нет
Параметр GMC формата                     : Без точки перехода
Параметр матрицы формата                 : Default (H.263)
Идентификатор кодека                     : XVID
Идентификатор кодека/Подсказка           : XviD
Продолжительность                        : 23 м.
Битрейт                                  : 1500 Кбит/сек
Ширина                                   : 720 пикселей
Высота                                   : 404 пикселя
Соотношение сторон                       : 16:9
Частота кадров                           : 23,976 кадра/сек
Цветовое пространство                    : YUV
Субдискретизация насыщенности            : 4:2:0
Битовая глубина                          : 8 бит
Тип развёртки                            : Прогрессивная
Метод сжатия                             : С потерями
Бит/(Пиксели*Кадры)                      : 0.215
Размер потока                            : 254 Мбайт (61%)
Библиотека кодирования                   : XviD 73

Аудио #1
Идентификатор                            : 1
Формат                                   : AC-3
Формат/Информация                        : Audio Coding 3
Расширение режима                        : CM (complete main)
Параметр Endianness формата              : Big
Идентификатор кодека                     : 2000
Продолжительность                        : 23 м.
Вид битрейта                             : Постоянный
Битрейт                                  : 256 Кбит/сек
Каналы                                   : 2 канала
Расположение каналов                     : Front: L R
Частота                                  : 48,0 КГц
Битовая глубина                          : 16 бит
Метод сжатия                             : С потерями
Размер потока                            : 43,4 Мбайт (10%)
Выравнивание                             : Разделение по промежуткам
Продолжительность промежутка             : 42  мс. (1,00 видеокадр)
Время предзагрузки промежутка            : 500  мс.
Заголовок                                : Russian [2x2]

Аудио #2
Идентификатор                            : 2
Формат                                   : AC-3
Формат/Информация                        : Audio Coding 3
Расширение режима                        : CM (complete main)
Параметр Endianness формата              : Big
Идентификатор кодека                     : 2000
Продолжительность                        : 23 м.
Вид битрейта                             : Постоянный
Битрейт                                  : 448 Кбит/сек
Каналы                                   : 6 каналов
Расположение каналов                     : Front: L C R, Side: L R, LFE
Частота                                  : 48,0 КГц
Битовая глубина                          : 16 бит
Метод сжатия                             : С потерями
Размер потока                            : 75,9 Мбайт (18%)
Выравнивание                             : Разделение по промежуткам
Продолжительность промежутка             : 42  мс. (1,00 видеокадр)
Время предзагрузки промежутка            : 500  мс.
Заголовок                                : English [Prof. DUB]

Аудио #3
Идентификатор                            : 3
Формат                                   : AC-3
Формат/Информация                        : Audio Coding 3
Расширение режима                        : CM (complete main)
Параметр Endianness формата              : Big
Идентификатор кодека                     : 2000
Продолжительность                        : 23 м.
Вид битрейта                             : Постоянный
Битрейт                                  : 256 Кбит/сек
Каналы                                   : 2 канала
Расположение каналов                     : Front: L R
Частота                                  : 48,0 КГц
Битовая глубина                          : 16 бит
Метод сжатия                             : С потерями
Размер потока                            : 43,4 Мбайт (10%)
Выравнивание                             : Разделение по промежуткам
Продолжительность промежутка             : 42  мс. (1,00 видеокадр)
Время предзагрузки промежутка            : 500  мс.
Заголовок                                : Japanese [Original]


Скриншоты: - показать


Дядя Шарик
Релиз от
источник
ARRU & RenmeiRei & REBUILD ARRU
А вы ничего не забыли?
наверх

Последние поступления