ARRU





Mardock Scramble (1st movie)
Мардокская развилка (Фильм первый)[BD-rip][HWP]   Bookmark


Скачать вход / регистрация
Тема на форуме Обсудить фильм (комментариев: 14)
Обсуждение раздачи (комментариев: 80)
ОписаниеMardock Scramble (1st movie) / Мардокская развилка (Фильм первый)[BD-rip][HWP]
Оригинальное название: Mardock Scramble
Русское название: Мардокская развилка
Страна: Япония
Год выпуска / период трансляции: 08.10.2010
Жанр: киберпанк,  фантастика, приключения
Возрастное ограничение: +16
Количество эпизодов: 3
Продолжительность:  65 мин.
Студия:


Описание:
«Почему я?..» Последнее о чём подумала Рун Балот, молодая проститутка… Её человеческая жизнь оборвалась. Рабыня опасного картёжника Шела, потерявшая свою жизнь от его же руки… На этом бы история и закончилась, если бы не одно но… Она стала киборгом. Получив силу, она преследует Шела и его помощника, Бойледа. Впереди – нелёгкий путь полный опасностей, предательства и обмана…
© mewand

Названия эпизодов:
01. Мардокская развилка: фильм первый

Источник рипа: BD-Rip [THORA]
Автор рипа\энкод: Renmei Rei
Тип видео: Без хардсаба
Контейнер: AVI
Видео: XviD (Build 73) | 720 x 404 пикселей | 23,976 кадра/сек | ~1500 Кбит/сек ;

Аудио:
RUS: AC-3 | 48.0 КГц | стерео | 256 Кбит/сек;
JAP:  AC-3 | 48.0 КГц | 6 каналов | 448 Кбит/сек

Субтитры: русские | отдельно (SRT, SSA)[Carrier88 & Adel]
Перевод: Carrier88 & Adel
Озвучивание: любительский многоголосый (жен./муж.) от Leina & Zic & Kasumi & Stef (Workshop ARRU)

MediaInfo: - показать
Общее
Полное имя                               : D:\Video\HWP\[AnimeReactor.RU] Mardock Scramble The First Compression (movie)[BDRip][HWP]\Mardock Scramble The First Compression [01 of 03][BDRip][720x404 XviD AC3x2][ARRU Workshop].avi
Формат                                   : AVI
Формат/Информация                        : Audio Video Interleave
Размер файла                             : 1,07 Гбайт
Продолжительность                        : 1 ч. 9 м.
Общий поток                              : 2218 Кбит/сек
Программа кодирования                    : VirtualDubModRus 1.5.10.2 (build 2542/release)
Библиотека кодирования                   : VirtualDubMod build 2542/release

Видео
Идентификатор                            : 0
Формат                                   : MPEG-4 Visual
Профиль формата                          : Advanced Simple@L5
Параметр BVOP формата                    : 2
Параметр QPel формата                    : Нет
Параметр GMC формата                     : Без точки перехода
Параметр матрицы формата                 : Default (H.263)
Идентификатор кодека                     : XVID
Идентификатор кодека/Подсказка           : XviD
Продолжительность                        : 1 ч. 9 м.
Битрейт                                  : 1500 Кбит/сек
Ширина                                   : 720 пикселей
Высота                                   : 404 пикселя
Соотношение сторон                       : 16:9
Частота кадров                           : 23,976 кадра/сек
Цветовое пространство                    : YUV
Субдискретизация насыщенности            : 4:2:0
Битовая глубина                          : 8 бит
Тип развёртки                            : Прогрессивная
Метод сжатия                             : С потерями
Бит/(Пиксели*Кадры)                      : 0.215
Размер потока                            : 742 Мбайт (68%)
Библиотека кодирования                   : XviD 73

Аудио #1
Идентификатор                            : 1
Формат                                   : AC-3
Формат/Информация                        : Audio Coding 3
Расширение режима                        : CM (complete main)
Параметр Endianness формата              : Big
Идентификатор кодека                     : 2000
Продолжительность                        : 1 ч. 9 м.
Вид битрейта                             : Постоянный
Битрейт                                  : 256 Кбит/сек
Каналы                                   : 2 канала
Расположение каналов                     : Front: L R
Частота                                  : 48,0 КГц
Битовая глубина                          : 16 бит
Метод сжатия                             : С потерями
Размер потока                            : 127 Мбайт (12%)
Выравнивание                             : Разделение по промежуткам
Продолжительность промежутка             : 42  мс. (1,00 видеокадр)
Время предзагрузки промежутка            : 500  мс.
Заголовок                                : Russian [Leina & Zic & Kasumi & Stef]

Аудио #2
Идентификатор                            : 2
Формат                                   : AC-3
Формат/Информация                        : Audio Coding 3
Расширение режима                        : CM (complete main)
Параметр Endianness формата              : Big
Идентификатор кодека                     : 2000
Продолжительность                        : 1 ч. 9 м.
Вид битрейта                             : Постоянный
Битрейт                                  : 448 Кбит/сек
Каналы                                   : 6 каналов
Расположение каналов                     : Front: L C R, Side: L R, LFE
Частота                                  : 48,0 КГц
Битовая глубина                          : 16 бит
Метод сжатия                             : С потерями
Размер потока                            : 222 Мбайт (20%)
Выравнивание                             : Разделение по промежуткам
Продолжительность промежутка             : 42  мс. (1,00 видеокадр)
Время предзагрузки промежутка            : 500  мс.
Заголовок                                : Japanese [Original]


Скриншоты: - показать
Дядя Шарик
Релиз от
источник
Мастерская АРРУ RenmeiRei REBUILD ARRU
А вы ничего не забыли?
наверх

Последние поступления