ARRU





Baccano!
Шумиха! (TV)(2007)[01-16 из 16][BD-Rip][720p]   Bookmark


Скачать вход / регистрация
Тема на форуме Обсудить аниме (комментариев: 84)
Обсуждение раздачи (комментариев: 9)
Смотреть онлайн
ОписаниеBaccano! / Шумиха! (TV)(2007)[01-16 из 16][BD-Rip][720p]
Оригинальное название: バッカーノ!
Английское название: Baccano!
Русское название: Шумиха!

Страна: Япония
Год выпуска / период трансляции: c 27.07.2007 по 02.11.2007
Жанр:  приключения, история, мистика
Количество эпизодов ТВ: 16
Продолжительность: 25 мин

Студия:
Режиссёр: Омори Такахиро
Сценарист: Такаги Нобору
Композитор: Ёсимори Макото
Автор оригинала: Нарита Рёго

Описание:
Америка времен «Великой Депрессии» и сухого закона: эпоха организованной преступности, пистолетов-пулеметов Томпсона, просторных штанов и черно-белых кинозвезд.
На территориях, поделенных мафиозными кланами Гандор и Мартильо, совершаются нападения на казино и бары; убийцы охотятся за Люком Гандором и Фиро Проченцо из семьи Мартильо. На трансконтинентальном экспрессе «Крадущийся тигр» происходят жестокие убийства – трупы пассажиров находят по всему пути следования. Этим же поездом в Нью-Йорк едут эксцентричные воришки, Айзек Дин и Мирия Харвент. Что – совпадения, а что – звенья единой цепи обстоятельств в этой «шумихе»?..

© Анастасия Розанова, World Art


Названия эпизодов:
01. The Assistant Editor Refuses to Discuss the Possibility that he is the Main Character
02. Despite the Old Woman`s Anxieties the Trans-Continental Train Pulls Out
03. Randy and Pezzo are Busy Getting Ready for the Party
04. Ladd Russo Enjoys Talking a Lot and Killing a Lot
05. Jacuzzi Splot Cries, Cowers, and Shows His Mettle
06. The Rail Tracer Maneuvers Through the Train Slaughtering Many
07. Everything Began on Board the Advena Avis
08. Isaac and Miria Spread Happiness Without Realizing It
09. Claire Stanfield Faithfully Executes Her Professional Duties
10. Czeslaw Meyer is Frightened by the Shadow of an Immortal and Reflects Upon His Shceme
11. Chane LaForet is Silent Before the Two Mysterious People
12. Firo and the Gandor Brothers are Shot Down
13. Both the Life of an Immortal and a Mortal are Equally Glorified

Спэшлы:
14. Graham Spector's Love and Peace (27.02.2008)
15. The Juvenile Delinquents Who Arrived at the Upscale Residential District are Still the Same as Always (23.04.2008)
16. Carol Realised There Was no End to This Story (28.05.2008)


Качество рипа: BDRip
Автор рипа: A_warrior_of_light
Тип видео: Без хардсаба
Контейнер: mkv
Видео: AVC (х264) | 10 bit | 1280x720 pixels | ~4200Kbps | 23.976 fps

Внимание:
Видео 10-битное! Скачайте и установите свежую версию СССР или K-Lite (x32) и смотрите видео с помощью встроенного туда плеера MPC-HC,  или установите сборку KMP с использованием LAV Filters. Как еще один вариант, можно использовать VLC.

Аудио:
RUS: MP3 | 41000Hz | 192 Kbps | 2ch (серии с 01 по 13)
RUS: MP3 | 48000Hz | 192 Kbps | 2ch (серии с 14 по 16)
JAP: АС3 | 48000Hz | ~450 Kbps | 2ch

Cерии с 01 по 13
Озвучивание: Cuba77
Перевод: Sauron13

Cерии с 14 по 16
Озвучивание: ATOM
Перевод: k. OS
Редактор/Оформление: Rosetau

Субтитры: Antravoco (перевод: tori-ol, редактирование: silencess, Kilar, DM85)

MediaInfo: - показать

Общее
Формат                           : Matroska
Версия формата                   : Version 2
Размер файла                     : 878 Мбайт
Продолжительность                : 24 м.
Общий поток                      : 4971 Кбит/сек
Дата кодирования                 : UTC 2013-05-18 06:08:01
Программа кодирования            : mkvmerge v3.4.0 сборка от May 15 2010 09:38:20
Библиотека кодирования           : libebml v0.8.0 + libmatroska v0.9.0

Видео
Идентификатор                    : 1
Формат                           : AVC
Формат/Информация                : Advanced Video Codec
Профиль формата                  : High 10@L4.1
Параметр CABAC формата           : Да
Параметр ReFrames формата        : 9 кадров
Идентификатор кодека             : V_MPEG4/ISO/AVC
Продолжительность                : 24 м.
Битрейт                          : 4339 Кбит/сек
Ширина                           : 1280 пикселей
Высота                           : 720 пикселей
Соотношение сторон               : 16:9
Частота кадров                   : 23,976 кадра/сек
Цветовое пространство            : YUV
Субдискретизация насыщенности    : 4:2:0
Битовая глубина                  : 10 бит
Тип развёртки                    : Прогрессивная
Бит/(Пиксели*Кадры)              : 0.196
Размер потока                    : 748 Мбайт (85%)
Заголовок                        : rip by A_warrior_of_light
Библиотека кодирования           : x264 core 118 r2085 8a62835
Язык                             : English
Default                          : Нет
Forced                           : Нет

Аудио #1
Идентификатор                    : 2
Формат                           : MPEG Audio
Версия формата                   : Version 1
Профиль формата                  : Layer 3
Идентификатор кодека             : A_MPEG/L3
Идентификатор кодека/Подсказка   : MP3
Продолжительность                : 24 м.
Вид битрейта                     : Постоянный
Битрейт                          : 192 Кбит/сек
Каналы                           : 2 канала
Частота                          : 44,1 КГц
Метод сжатия                     : С потерями
Размер потока                    : 33,9 Мбайт (4%)
Заголовок                        : Cuba77
Язык                             : Russian
Default                          : Да
Forced                           : Да

Аудио #2
Идентификатор                    : 3
Формат                           : AC-3
Формат/Информация                : Audio Coding 3
Расширение режима                : CM (complete main)
Идентификатор кодека             : A_AC3
Продолжительность                : 24 м.
Вид битрейта                     : Постоянный
Битрейт                          : 448 Кбит/сек
Каналы                           : 2 канала
Расположение каналов             : Front: L R
Частота                          : 48,0 КГц
Битовая глубина                  : 16 бит
Метод сжатия                     : С потерями
Размер потока                    : 79,1 Мбайт (9%)
Заголовок                        : Original
Язык                             : Japanese
Default                          : Нет
Forced                           : Нет

Текст
Идентификатор                    : 4
Формат                           : ASS
Идентификатор кодека             : S_TEXT/ASS
Идентификатор кодека/Информация  : Advanced Sub Station Alpha
Метод сжатия                     : Без потерь
Заголовок                        : Antravoco
Язык                             : Russian
Default                          : Нет
Forced                           : Нет


Скриншоты: - показать



От себя:
Данный релиз был предоставлен товарищем A_warrior_of_light, за что ему огромное спасибо.
Дядя Шарик
Релиз от
источник
ARRU & Cuba77 & REBUILD ARRU   &   ATOM
А вы ничего не забыли?
наверх

Последние поступления