ARRU





Natsuyuki Rendezvous
Встреча снежным летом (TV)(2012)[01-11 из 11][BD-Rip][720p]   Bookmark


Скачать вход / регистрация
Тема на форуме Обсудить аниме (комментариев: 2)
Обсуждение раздачи (комментариев: 4)
ОписаниеNatsuyuki Rendezvous / Встреча снежным летом (TV)(2012)[01-11 из 11][BD-Rip][720p]
Оригинальное название: 夏雪ランデブー
Английское название: Natsuyuki Rendezvous
Русское название: Встреча снежным летом

Страна: Япония
Год выпуска / период трансляции:  c 06.07.2012 по 14.09.2012
Жанр:  романтика, драма, мистика

Количество эпизодов ТВ: 11
Продолжительность: 11 мин

Студия:
Режиссёр: Мацуо Ко
Автор оригинала: Кавати Харука


Описание:
Рёсукэ Хадзуки, 22-летний парень без определенных занятий, влюбился в молодую вдову Рокку Симао, хозяйку цветочного магазина. Рёсукэ, хоть и слаб зрением, высок и недурен собой. Симао, хоть и старше Хадзуки на 8 лет, выглядит его ровесницей, а как, скажите, хрупкой женщине с магазином управляться? Так что герой начал осваивать нелегкое ремесло флориста, а когда вторая продавщица объявила, что уезжает, понял, что скоро останется вдвоем с любимой и тогда… Только все испортил блондинистый парень, парящий в воздухе и утверждающий, что он – Ацуси, покойный муж Рокки, причем видеть его может только Хадзуки, которому о хозяйке дома лучше забыть!

Вот такой получился треугольник! Дух Ацуси остался в нашем мире, потому что хозяин недожил, недолюбил, да и в брак школьные друзья вступили, зная, что один из них неизлечимо болен. Рокка за годы одиночества привыкла заглушать боль работой, Ацуси хотел бы, чтобы она вновь обрела счастье - но не с Рёсукэ, которого (как и себя) считает слабаком и неудачником. Сможет ли герой убедить нежданного соперника в обратном? Цель у мужчин одна, а значит, и понимание возможно. В общем, шанс есть, но Хадзуки придется сильно постараться и крепко рискнуть. Любовь, как известно, требует жертв, а кто рискует - побеждает!
© Hollow, World Art


Названия эпизодов: - показать

1-11.



Качество рипа: BDRip
Автор рипа: Winter - RG Pantheon
Тип видео: Без хардсаба
Контейнер: mkv
Видео: AVC (х264) | 10 bit | 1280x720 pixels | ~2800Kbps | 23.976 fps

Внимание:
Видео 10-битное! Скачайте и установите свежую версию СССР или K-Lite (x32) и смотрите видео с помощью встроенного туда плеера MPC-HC,  или установите сборку KMP с использованием LAV Filters. Как еще один вариант, можно использовать VLC.


Аудио:
RUS: АС3 | 48000Hz | 320 Kbps | 2ch
JAP: Vorbis | 48000Hz | 256 Kbps | 2ch

Озвучивание: MifSnaiper & KroshkaRu
Перевод: AOS (Перевод: red_star, Оформление: mutagenb)
Субтитры: от 2S-Shoujo (переводчик: sys3x, редакторы: Kasandra, Sora_P3_Heaven, Tany Sword, volta_john)


MediaInfo: - показать

Общее
Формат                           : Matroska
Версия формата                   : Version 2
Размер файла                     : 490 Мбайт
Продолжительность                : 22 м.
Режим общего битрейта            : Переменный
Общий поток                      : 2998 Кбит/сек
Дата кодирования                 : UTC 2013-05-04 05:53:23
Программа кодирования            : mkvmerge v3.4.0 сборка от May 15 2010 09:38:20
Библиотека кодирования           : libebml v0.8.0 + libmatroska v0.9.0

Видео
Идентификатор                    : 1
Формат                           : AVC
Формат/Информация                : Advanced Video Codec
Профиль формата                  : High 10@L4.1
Параметр CABAC формата           : Да
Параметр ReFrames формата        : 9 кадров
Идентификатор кодека             : V_MPEG4/ISO/AVC
Продолжительность                : 22 м.
Битрейт                          : 2490 Кбит/сек
Ширина                           : 1280 пикселей
Высота                           : 720 пикселей
Соотношение сторон               : 16:9
Частота кадров                   : 23,976 кадра/сек
Цветовое пространство            : YUV
Субдискретизация насыщенности    : 4:2:0
Битовая глубина                  : 10 бит
Тип развёртки                    : Прогрессивная
Бит/(Пиксели*Кадры)              : 0.113
Размер потока                    : 407 Мбайт (83%)
Заголовок                        : rip by Winter
Библиотека кодирования           : x264 core 125 r2200 999b753
Default                          : Нет
Forced                           : Нет

Аудио #1
Идентификатор                    : 2
Формат                           : AC-3
Формат/Информация                : Audio Coding 3
Расширение режима                : CM (complete main)
Идентификатор кодека             : A_AC3
Продолжительность                : 22 м.
Вид битрейта                     : Постоянный
Битрейт                          : 192 Кбит/сек
Каналы                           : 2 канала
Расположение каналов             : Front: L R
Частота                          : 48,0 КГц
Битовая глубина                  : 16 бит
Метод сжатия                     : С потерями
Размер потока                    : 31,4 Мбайт (6%)
Заголовок                        : MifSnaiper & KroshkaRu
Язык                             : Russian
Default                          : Да
Forced                           : Нет

Аудио #2
Идентификатор                    : 3
Формат                           : Vorbis
Параметр Floor формата           : 1
Идентификатор кодека             : A_VORBIS
Продолжительность                : 22 м.
Вид битрейта                     : Переменный
Битрейт                          : 256 Кбит/сек
Каналы                           : 2 канала
Частота                          : 48,0 КГц
Метод сжатия                     : С потерями
Размер потока                    : 41,9 Мбайт (9%)
Заголовок                        : Original
Библиотека кодирования           : libVorbis (Schaufenugget) (20101101 (Schaufenugget))
Язык                             : Japanese
Default                          : Нет
Forced                           : Нет

Текст #1
Идентификатор                    : 4
Формат                           : ASS
Идентификатор кодека             : S_TEXT/ASS
Идентификатор кодека/Информация  : Advanced Sub Station Alpha
Метод сжатия                     : Без потерь
Заголовок                        : 2S-Shoujo (надписи)
Язык                             : Russian
Default                          : Да
Forced                           : Нет

Текст #2
Идентификатор                    : 5
Формат                           : ASS
Идентификатор кодека             : S_TEXT/ASS
Идентификатор кодека/Информация  : Advanced Sub Station Alpha
Метод сжатия                     : Без потерь
Заголовок                        : 2S-Shoujo
Язык                             : Russian
Default                          : Нет
Forced                           : Нет



Скриншоты: - показать



От себя:
Данный релиз был предоставлен товарищем Aglenn, за что ему огромное спасибо.
Дядя Шарик
Релиз от
источник
ARRU & MifSnaiper & SeM & REBUILD ARRU
А вы ничего не забыли?
наверх

Последние поступления