ARRU





Fate/Zero (TV-2)
Судьба/Начало (второй сезон)(2012)[01-12 из 12][BD-Rip][HWP]   Bookmark


Скачать вход / регистрация
Тема на форуме Обсудить аниме (комментариев: 1610)
Обсуждение раздачи (комментариев: 36)
ОписаниеFate/Zero (TV-2) / Судьба/Начало (второй сезон)(2012)[01-12 из 12][BD-Rip][HWP]
Оригинальное название: フェイト/ゼロ 2
Английское название: Fate/Zero 2
Русское название: Судьба: Начало [ТВ-2]
Страна: Япония
Год выпуска / период трансляции: c 08.04.2012 по 24.06.2012
Жанр:приключения, фэнтези
Количество эпизодов ТВ: 12
Продолжительность: 25 мин
Режиссёр: Аоки Эй
Автор оригинала: Уробути Гэн
Студия:


Описание:
 Четвертая война Святого Грааля, величайший магический ритуал, призванный решить судьбы мира, вступает в завершающую фазу. Еще никогда на поле брани не выходили столь могучие воины-Слуги, да и маги-Мастера оказались им под стать. Большинство Мастеров знают, что в этой войне кому-то суждено добыть Грааль, и потому, как разумные люди, наплевали на правила и принялись с первых же часов активно обманывать, подставлять и убивать как врагов, так и союзников. Ряды участников редеют, а битвы уже невозможно скрыть от посторонних, ибо вызванные монстры вот-вот снесут маленький городок Фуюки с лица земли.
 Итак, знакомство давно позади, маски сброшены, сильные и слабые стороны каждого Мастера и Слуги известны. Мы узнали, как началась эта история, и знаем, как она закончится. Осталось лишь насладиться тем, что было посередине!

© Hollow

Названия эпизодов: - показать

01. Битва на реке Мион
02. Золотой свет
03. Граница чести
04. Восьмой контракт
05. Далёкие воспоминания
06. Где найдена справедливость
07. Возвращение Убийцы
08. Рыцарь на колеснице
09. Всё зло этого мира
10. Последнее море
11. Финальное заклинание
12. Судьба начало


Источник рипа: BD-Rip [Yousei-raws]
Автор рипа\энкод: Renmei Rei
Тип видео: Без хардсаба
Контейнер: AVI
Видео: XviD (Build 65) | 720 x 404 пикселей | 23,976 кадра/сек | ~1800 Кбит/сек ;

Аудио:
RUS: AC-3 | 48.0 КГц | стерео | 256 Кбит/сек;
JAP:  AC-3 | 48.0 КГц | стерео | 256 Кбит/сек

Субтитры: - показать
Тех. данные: русские | отдельно (полные/вспомогательные)(SRT, SSA)
Переводчик: der_zauberer [Shift]
Редактор/Оформление: Jaga [Shift]
Редактор: Редактор: Zelretch [Shift]

Озвучивание: любительский двухголосый (муж./жен) от Valkrist & Kasumi

MediaInfo: - показать
Общее
Полное имя                               : D:\Video\HWP\[AnimeReactor.RU] Fate Zero (TV-2)[1-12 of 12][BDRip][HWP]\Fate Zero (TV-2)[01 of 12][BDRip][720x404 XviD AC3x2][MCA & AnimeReactor.RU].avi
Формат                                   : AVI
Формат/Информация                        : Audio Video Interleave
Размер файла                             : 384 Мбайт
Продолжительность                        : 23 м.
Общий поток                              : 2262 Кбит/сек
Программа кодирования                    : VirtualDubModRus 1.5.10.2 (build 2542/release)
Библиотека кодирования                   : VirtualDubMod build 2542/release

Видео
Идентификатор                            : 0
Формат                                   : MPEG-4 Visual
Профиль формата                          : Advanced Simple@L5
Параметр BVOP формата                    : 2
Параметр QPel формата                    : Нет
Параметр GMC формата                     : Без точки перехода
Параметр матрицы формата                 : Default (H.263)
Идентификатор кодека                     : XVID
Идентификатор кодека/Подсказка           : XviD
Продолжительность                        : 23 м.
Битрейт                                  : 1800 Кбит/сек
Ширина                                   : 720 пикселей
Высота                                   : 404 пикселя
Соотношение сторон                       : 16:9
Частота кадров                           : 23,976 кадра/сек
Цветовое пространство                    : YUV
Субдискретизация насыщенности            : 4:2:0
Битовая глубина                          : 8 бит
Тип развёртки                            : Прогрессивная
Метод сжатия                             : С потерями
Бит/(Пиксели*Кадры)                      : 0.258
Размер потока                            : 305 Мбайт (80%)
Библиотека кодирования                   : XviD 65

Аудио #1
Идентификатор                            : 1
Формат                                   : AC-3
Формат/Информация                        : Audio Coding 3
Расширение режима                        : CM (complete main)
Параметр Endianness формата              : Big
Идентификатор кодека                     : 2000
Продолжительность                        : 23 м.
Вид битрейта                             : Постоянный
Битрейт                                  : 192 Кбит/сек
Каналы                                   : 2 канала
Расположение каналов                     : Front: L R
Частота                                  : 48,0 КГц
Битовая глубина                          : 16 бит
Метод сжатия                             : С потерями
Размер потока                            : 32,5 Мбайт (8%)
Выравнивание                             : Разделение по промежуткам
Продолжительность промежутка             : 42  мс. (1,00 видеокадр)
Время предзагрузки промежутка            : 500  мс.
Заголовок                                : Russian [Valkrist & Kasumi]

Аудио #2
Идентификатор                            : 2
Формат                                   : AC-3
Формат/Информация                        : Audio Coding 3
Расширение режима                        : CM (complete main)
Параметр Endianness формата              : Big
Идентификатор кодека                     : 2000
Продолжительность                        : 23 м.
Вид битрейта                             : Постоянный
Битрейт                                  : 256 Кбит/сек
Каналы                                   : 2 канала
Расположение каналов                     : Front: L R
Частота                                  : 48,0 КГц
Битовая глубина                          : 16 бит
Метод сжатия                             : С потерями
Размер потока                            : 43,4 Мбайт (11%)
Выравнивание                             : Разделение по промежуткам
Продолжительность промежутка             : 42  мс. (1,00 видеокадр)
Время предзагрузки промежутка            : 500  мс.
Заголовок                                : Japanese [Original]


Скриншоты: - показать

Дядя Шарик
Релиз от
источник
ARRU & Moscow City Animegroup - MCA & RenmeiRei & REBUILD ARRU
А вы ничего не забыли?
наверх

Последние поступления