ARRU





Oda Nobuna no Yabou
Амбиции Оды Нобуны (TV)(2012)[01-12 из 12][BD-Rip][720p]   Bookmark


Скачать вход / регистрация
Тема на форуме Обсудить аниме (комментариев: 21)
Обсуждение раздачи (комментариев: 18)
ОписаниеOda Nobuna no Yabou / Амбиции Оды Нобуны (TV)(2012)[01-12 из 12][BD-Rip][720p]
Оригинальное название: Oda Nobuna no Yabou
Русское название: Амбиции Оды Нобуны

Страна: Япония
Год выпуска / период трансляции: c 09.07.2012 по 24.09.2012
Жанр: приключения, комедия, романтика
Количество эпизодов ТВ: 12
Продолжительность: 25 мин

Студия:
Режиссёр: Кумадзава Юдзи
Автор оригинала: Касуга Микагэ


Описание:
Нашему современнику Ёсихару Сагаре довелось попасть в очередную версию японской Эпохи Смут, ко двору принцессы земли Овари по имени… Нобуна Ода! Да, в этом мире среди исторических князей, полководцев и советников хватает симпатичных девушек, правда, остальные – суровые мужики с выбритыми лбами. Простой японский школьник не растерялся – в игрушках и не такие расклады встречаются! Он полюбил гениальную и взбалмошную Нобуну, которая жаждет объединить Японию не ради власти, а мечтая создать великую страну, способную дать отпор алчным чужеземцам. Сагара понял, что судьба дает ему шанс совершить великие дела, а там, может, и путь домой найдется.

В итоге гость из будущего занял место в ближнем круге даймё Овари, щедро используя знания, почерпнутые из компьютерных игр про Сэнгоку Дзидай. Ёсихару удалось удержать любимую принцессу от поспешных решений и склонить к союзу неуступчивого соседа – князя земли Мино. Сама Нобуна тоже постепенно поняла, что уже не может обходиться без советов непонятного парня, которого сгоряча назвала «мартышкой». Проблема в том, что действия Ёсихару изменили известную историю, и отныне события покатились по новому руслу. Теперь героям придется искать собственный путь, а маяками на нем будут, конечно же, амбиции Оды Нобуны, знаки судьбы, честь, коварство и любовь!
© Hollow, World Art

Названия эпизодов: - показать

01. Нобуна и Макак
02. Борьба за власть в семье Ода
03. Война в Мино
04. Ветер перемен. Окэхадзама.
05. Стратегия одарённого полководца.
06. Замок Суномата
07. Нобуна продвигается в Киото
08. Сакаи - золотой свободный город
09. Битва при храме Киёмизу
10. Нобуна в смертельной опасности
11. Отступление при Канегасаки
12. Завоевание


Качество рипа: BDRip
Автор рипа: Winter - RG Pantheon
Тип видео: Без хардсаба
Контейнер: mkv
Видео: AVC (х264) | 10 bit | 1280x720 pixels | ~3600Kbps | 23.976 fps

Внимание:
Видео 10-битное! Скачайте и установите свежую версию СССР или K-Lite (x32) и смотрите видео с помощью встроенного туда плеера MPC-HC,  или установите сборку KMP с использованием LAV Filters. Как еще один вариант, можно использовать VLC.

Аудио:
RUS: AC3 | 48000Hz | 192 Kbps | 2ch
JAP: Vorbis | 48000Hz | 256 Kbps | 2ch

Озвучивание: VashMax2
Cубтитры: Fratelli
Перевод и редактура: Jenia aka Zub и Sasha aka Zub

MediaInfo: - показать

Общее

Формат                           : Matroska
Версия формата                   : Version 2
Размер файла                     : 692 Мбайт
Продолжительность                : 24 м.
Режим общего битрейта            : Переменный
Общий поток                      : 4014 Кбит/сек
Дата кодирования                 : UTC 2013-04-13 06:18:34
Программа кодирования            : mkvmerge v3.4.0  сборка от May 15 2010 09:38:20
Библиотека кодирования           : libebml v0.8.0 + libmatroska v0.9.0

Видео
Идентификатор                    : 1
Формат                           : AVC
Формат/Информация                : Advanced Video Codec
Профиль формата                  : High 10@L4.1
Параметр CABAC формата           : Да
Параметр ReFrames формата        : 9 кадров
Идентификатор кодека             : V_MPEG4/ISO/AVC
Продолжительность                : 24 м.
Битрейт                          : 3486 Кбит/сек
Ширина                           : 1280 пикселей
Высота                           : 720 пикселей
Соотношение сторон               : 16:9
Частота кадров                   : 23,976 кадра/сек
Цветовое пространство            : YUV
Субдискретизация насыщенности    : 4:2:0
Битовая глубина                  : 10 бит
Тип развёртки                    : Прогрессивная
Бит/(Пиксели*Кадры)              : 0.158
Размер потока                    : 601 Мбайт (87%)
Заголовок                        : rip by Winter - RG Pantheon
Библиотека кодирования           : x264 core 125 r2200 999b753
Default                          : Да
Forced                           : Нет

Аудио #1
Идентификатор                    : 2
Формат                           : AC-3
Формат/Информация                : Audio Coding 3
Расширение режима                : CM (complete main)
Идентификатор кодека             : A_AC3
Продолжительность                : 24 м.
Вид битрейта                     : Постоянный
Битрейт                          : 192 Кбит/сек
Каналы                           : 2 канала
Расположение каналов             : Front: L R
Частота                          : 48,0 КГц
Битовая глубина                  : 16 бит
Метод сжатия                     : С потерями
Размер потока                    : 33,1 Мбайт (5%)
Заголовок                        : VashMax2
Язык                             : Russian
Default                          : Да
Forced                           : Нет

Аудио #2
Идентификатор                    : 3
Формат                           : Vorbis
Параметр Floor формата           : 1
Идентификатор кодека             : A_VORBIS
Продолжительность                : 24 м.
Вид битрейта                     : Переменный
Битрейт                          : 256 Кбит/сек
Каналы                           : 2 канала
Частота                          : 48,0 КГц
Метод сжатия                     : С потерями
Размер потока                    : 44,1 Мбайт (6%)
Заголовок                        : Original
Библиотека кодирования           : libVorbis (Schaufenugget) (20101101 (Schaufenugget))
Язык                             : Japanese
Default                          : Нет
Forced                           : Нет

Текст #1
Идентификатор                    : 4
Формат                           : ASS
Идентификатор кодека             : S_TEXT/ASS
Идентификатор кодека/Информация  : Advanced Sub Station Alpha
Метод сжатия                     : Без потерь
Заголовок                        : Fratelli (надписи)
Язык                             : Russian
Default                          : Да
Forced                           : Нет

Текст #2
Идентификатор                    : 5
Формат                           : ASS
Идентификатор кодека             : S_TEXT/ASS
Идентификатор кодека/Информация  : Advanced Sub Station Alpha
Метод сжатия                     : Без потерь
Заголовок                        : Fratelli
Язык                             : Russian
Default                          : Нет
Forced                           : Нет


Скриншоты: - показать



От себя:
Данный релиз был предоставлен товарищем Aglenn, за что ему огромное спасибо.
Дядя Шарик
Релиз от
источник
ARRU & Moscow City Animegroup - MCA & REBUILD ARRU
А вы ничего не забыли?
наверх

Последние поступления