ARRU





Clannad After Story
Кланнад. Продолжение истории. (TV-2)(2008)[01-22 из 22 + 3 Special][BD-Rip][720p]   Bookmark


Скачать вход / регистрация
Тема на форуме Обсудить аниме (комментариев: 472)
Обсуждение раздачи (комментариев: 156)
Смотреть онлайн
ОписаниеClannad After Story / Кланнад. Продолжение истории. (TV-2)(2008)[01-22 из 22 + 3 Special][BD-Rip][720p]
Оригинальное название: CLANNAD ~AFTER STORY~
Английское название: Clannad After Story
Русское название: Кланнад. Продолжение истории

Страна: Япония
Год выпуска / период трансляции: c 03.10.2008 по 13.03.2009
Жанр:  романтика, драма
Количество эпизодов ТВ: 22
Продолжительность: 25 мин
Количество эпизодов Special: 3
Продолжительность: 25 мин

Студия:
Режиссёр: Исихара Тацуя
Сценарий: Симо Фумихико

Описание:
Сериал берет новый старт там, где окончился первый сезон. Миновали летние каникулы, подходит к концу последний школьный год большинства основных героев. Томоя Окадзаки сделал выбор и теперь живет у своей девушки, Нагисы Фурукавы, семью которой до сих пор считает чудом – ведь это то, чего он был так долго лишен в детстве и юности. Поняв себя, Томоя открылся миру, и теперь вокруг него не только любимая и ее близкие, но и все, кому он помог, принес добро и подарил частичку счастья.

Главные герои познали искусство жить большой и дружной семьей, любить и помогать друг другу. А теперь их ждут новые испытания – ведь свет не бывает без тени, добро без зла, счастье без потерь. Если первый сезон «Кланнада» символизирует весну и расцвет новой жизни, то второй сезон говорит об осени, с ее пышной красотой и неизбежным увяданием, ибо так велит круговорот времен. Но в совместных творениях Key и Kyoto Animation с каждым годом все сильнее звучит простой мотив: магия веры, дружбы и любви может одолеть боль утрат и повернуть вспять само время!
© Hollow, World Art

Названия эпизодов:
01. The Goodbye at the End of Summer
02. Search for Fake Love
03. Disagreeing Hearts
04. With the Same Smile as That Day
05. Your Existing Season
06. Forever By Your Side
07. Her Whereabouts
08. A Courageous Fight
09. On the Sloped Road
10. Season of Beginnings
11. The Promised Founder"s Festival
12. Unexpected Incident
13. Graduation
14. A New Family
15. In the Remains of Summer
16. White Darkness
17. Summertime
18. The Ends of the Earth
19. The Road Home
20. The Tidal Breeze"s Mischief
21. The End of the World
22. A Tiny Palm

Спец эпизоды:
23. The Incident One Year Ago
24. Summary - Under the Green Trees
25. Another World: Kyou Chapter


Качество рипа: BDRip
Автор рипа: Yousei-raws
Тип видео: Без хардсаба
Контейнер: mkv
Видео: AVC (h264) | 10 bit | 1280x720 pixels | ~3000Kbps | 23.976 fps

Внимание:
Видео 10-битное! Скачайте и установите свежую версию СССР или K-Lite (x32) и смотрите видео с помощью встроенного туда плеера MPC-HC,  или установите сборку KMP с использованием LAV Filters. Как еще один вариант, можно использовать VLC.

Аудио:
RUS: MP3 | 44100Hz | 192 Kbps | 2ch
JAP: AC3 | 48000Hz | 640 Kbps | 5.1ch

Озвучивание: Ancord
Перевод: Hollow & Вилли

MediaInfo: - показать

Общее
Формат                           : Matroska
Версия формата                   : Version 2
Размер файла                     : 591 Мбайт
Продолжительность                : 24 м.
Общий поток                      : 3414 Кбит/сек
Дата кодирования                 : UTC 2013-03-18 06:02:39
Программа кодирования            : mkvmerge v3.4.0 сборка от May 15 2010 09:38:20
Библиотека кодирования           : libebml v0.8.0 + libmatroska v0.9.0

Видео
Идентификатор                    : 1
Формат                           : AVC
Формат/Информация                : Advanced Video Codec
Профиль формата                  : High 10@L4.1
Параметр CABAC формата           : Да
Параметр ReFrames формата        : 9 кадров
Идентификатор кодека             : V_MPEG4/ISO/AVC
Продолжительность                : 24 м.
Битрейт                          : 2514 Кбит/сек
Ширина                           : 1280 пикселей
Высота                           : 720 пикселей
Соотношение сторон               : 16:9
Частота кадров                   : 23,976 кадра/сек
Цветовое пространство            : YUV
Субдискретизация насыщенности    : 4:2:0
Битовая глубина                  : 10 бит
Тип развёртки                    : Прогрессивная
Бит/(Пиксели*Кадры)              : 0.114
Размер потока                    : 435 Мбайт (74%)
Заголовок                        : rip by Yousei-raws
Библиотека кодирования           : x264 core 125 r2200 999b753
Default                          : Нет
Forced                           : Нет

Аудио #1
Идентификатор                    : 2
Формат                           : MPEG Audio
Версия формата                   : Version 1
Профиль формата                  : Layer 3
Идентификатор кодека             : A_MPEG/L3
Идентификатор кодека/Подсказка   : MP3
Продолжительность                : 24 м.
Вид битрейта                     : Постоянный
Битрейт                          : 192 Кбит/сек
Каналы                           : 2 канала
Частота                          : 44,1 КГц
Метод сжатия                     : С потерями
Размер потока                    : 33,2 Мбайт (6%)
Заголовок                        : Анкорд
Язык                             : Russian
Default                          : Да
Forced                           : Нет

Аудио #2
Идентификатор                    : 3
Формат                           : AC-3
Формат/Информация                : Audio Coding 3
Расширение режима                : CM (complete main)
Идентификатор кодека             : A_AC3
Продолжительность                : 24 м.
Вид битрейта                     : Постоянный
Битрейт                          : 640 Кбит/сек
Каналы                           : 6 каналов
Расположение каналов             : Front: L C R, Side: L R, LFE
Частота                          : 48,0 КГц
Битовая глубина                  : 16 бит
Метод сжатия                     : С потерями
Размер потока                    : 111 Мбайт (19%)
Заголовок                        : Original
Язык                             : Japanese
Default                          : Нет
Forced                           : Нет

Текст
Идентификатор                    : 4
Формат                           : ASS
Идентификатор кодека             : S_TEXT/ASS
Идентификатор кодека/Информация  : Advanced Sub Station Alpha
Метод сжатия                     : Без потерь
Заголовок                        : Willy & Hollow
Язык                             : Russian
Default                          : Нет
Forced                           : Нет


Скриншоты: - показать



От себя:
Данный релиз был предоставлен товарищем Aglenn, за что ему огромное спасибо.
Дядя Шарик
Релиз от
источник
ARRU & NARUTOfilm & REBUILD ARRU
А вы ничего не забыли?
наверх

Последние поступления