ARRU





Clannad TV
Кланнад (TV-1)(2001)[01-22 из 22 + 2 Special][BD-Rip][720p]   Bookmark


Скачать вход / регистрация
Тема на форуме Обсудить аниме (комментариев: 472)
Обсуждение раздачи (комментариев: 105)
Смотреть онлайн
ОписаниеClannad TV / Кланнад (TV-1)(2001)[01-22 из 22 + 2 Special][BD-Rip][720p]
Оригинальное название: クラナド
Английское название: Clannad
Русское название: Кланнад

Страна: Япония
Год выпуска / период трансляции: c 05.10.2007 по 21.03.2008
Жанр:  романтика, комедия, драма, школа
Количество эпизодов ТВ: 22
Продолжительность: 25 мин
Количество эпизодов Special: 2
Продолжительность: 25 мин

Студия:
Режиссёр: Исихара Тацуя
Сценарий: Симо Фумихико

Описание:
Томоя Окадзаки, ученик выпускного класса, разочаровался в жизни. После трагической гибели матери, отец его спился, а сам он обрел славу хулигана. Вместо подготовки к выпускным экзаменам, Томоя слоняется по школе, пропуская уроки и делая, что придет в голову. Но все меняется, когда весной он встречает вернувшуюся в школу Нагису Фурукаву - милую и странную девушку, которая обожает булочки, разговоры с самой собой, а еще мечтает возродить театральный кружок. Помогая Нагисе, Томоя понимает, что жизнь не кончилась, а сердце его начинает оттаивать. Кроме Нагисы и старого приятеля, Сунохары, в жизнь Томои входят сестры Кё и Рё, сильная и целеустремленная Томоё, школьный гений Котоми, абсолютно беспомощная в реальной жизни, и уж совсем странная Фуко - любительница морских звезд и школьных свадеб.

Постепенно Томоя замечает, что вокруг него вращаются жизни и судьбы многих людей... и осознает, что это не случайно. Ответ лежит в странном мире по ту сторону снов, в котором ждет юная девушка, чем-то похожая на него самого.
© Hollow, World Art

Названия эпизодов:
01. On the Hillside Path where Cherry Blossoms Flutter
02. The First Step
03. Once Again After Crying
04. Let's Find Friends
05. The Scenery with a Carving
06. The Older and Younger Sister's Founder's Festival
07. Star-Shaped Feelings
08. The Wind that Vanishes into Dusk
09. Until the End of the Dream
10. The Girl Genius' Challenge
11. The After School Rhapsody
12. Hidden World
13. Garden of Memories
14. Theory of Everything
15. Stuck Problem
16. 3 on 3
17. A Room Without Anyone
18. Counter Measures
19. A New Life
20. A Hidden Past
21. Face Toward the School Festival
22. Two Shadows

Special:
01. What Happened During Summer Holidays
02. Another World, Tomoyo Chapter


Качество рипа: BDRip
Тип видео: Без хардсаба
Контейнер: mkv
Видео: AVC (h264) | 8 bit | 1280x720 pixels | ~1930Kbps | 23.976 fps

Аудио:
RUS: MP3 | 44100Hz | 192 Kbps | 2ch
JAP: AC3 | 48000Hz | 640 Kbps | 5.1ch

Озвучивание: Ancord
Перевод: Hollow & Вилли


MediaInfo: - показать

Общее
Формат                           : Matroska
Версия формата                   : Version 2
Размер файла                     : 558 Мбайт
Продолжительность                : 24 м.
Общий поток                      : 3222 Кбит/сек
Дата кодирования                 : UTC 2013-03-18 05:51:32
Программа кодирования            : mkvmerge v3.4.0 сборка от May 15 2010 09:38:20
Библиотека кодирования           : libebml v0.8.0 + libmatroska v0.9.0

Видео
Идентификатор                    : 1
Формат                           : AVC
Формат/Информация                : Advanced Video Codec
Профиль формата                  : High@L4.1
Параметр CABAC формата           : Да
Параметр ReFrames формата        : 7 кадров
Идентификатор кодека             : V_MPEG4/ISO/AVC
Продолжительность                : 24 м.
Битрейт                          : 2326 Кбит/сек
Ширина                           : 1280 пикселей
Высота                           : 720 пикселей
Соотношение сторон               : 16:9
Частота кадров                   : 23,976 кадра/сек
Цветовое пространство            : YUV
Субдискретизация насыщенности    : 4:2:0
Битовая глубина                  : 8 бит
Тип развёртки                    : Прогрессивная
Бит/(Пиксели*Кадры)              : 0.105
Размер потока                    : 402 Мбайт (72%)
Библиотека кодирования           : x264 core 112 r1834 a51816a
Язык                             : Japanese
Default                          : Нет
Forced                           : Нет

Аудио #1
Идентификатор                    : 2
Формат                           : MPEG Audio
Версия формата                   : Version 1
Профиль формата                  : Layer 3
Идентификатор кодека             : A_MPEG/L3
Идентификатор кодека/Подсказка   : MP3
Продолжительность                : 24 м.
Вид битрейта                     : Постоянный
Битрейт                          : 192 Кбит/сек
Каналы                           : 2 канала
Частота                          : 44,1 КГц
Метод сжатия                     : С потерями
Размер потока                    : 33,2 Мбайт (6%)
Заголовок                        : Ancord
Язык                             : Russian
Default                          : Да
Forced                           : Нет

Аудио #2
Идентификатор                    : 3
Формат                           : AC-3
Формат/Информация                : Audio Coding 3
Расширение режима                : CM (complete main)
Идентификатор кодека             : A_AC3
Продолжительность                : 24 м.
Вид битрейта                     : Постоянный
Битрейт                          : 640 Кбит/сек
Каналы                           : 6 каналов
Расположение каналов             : Front: L C R, Side: L R, LFE
Частота                          : 48,0 КГц
Битовая глубина                  : 16 бит
Метод сжатия                     : С потерями
Размер потока                    : 111 Мбайт (20%)
Заголовок                        : Original
Язык                             : Japanese
Default                          : Нет
Forced                           : Нет

Текст
Идентификатор                    : 4
Формат                           : ASS
Идентификатор кодека             : S_TEXT/ASS
Идентификатор кодека/Информация  : Advanced Sub Station Alpha
Метод сжатия                     : Без потерь
Заголовок                        : Hollow & Вилли
Язык                             : Russian
Default                          : Нет
Forced                           : Нет


Скриншоты: - показать



От себя:
Данный релиз был предоставлен товарищем sasha990, за что ему огромное спасибо.
Дядя Шарик
Релиз от
источник
ARRU & NARUTOfilm & REBUILD ARRU
А вы ничего не забыли?
наверх

Последние поступления