ARRU





Fate/Zero (TV-1)
Судьба/Начало (первый сезон)(2011)[01-13 из 13][BD-Rip][HWP]   Bookmark


Скачать вход / регистрация
Тема на форуме Обсудить аниме (комментариев: 1608)
Обсуждение раздачи (комментариев: 73)
ОписаниеFate/Zero (TV-1) / Судьба/Начало (первый сезон)(2011)[01-13 из 13][BD-Rip][HWP]
Оригинальное название: Fate/Zero
Английское название: Fate/Zero
Русское название: Судьба/Начало
Страна: Япония
Год выпуска / период трансляции:c 02.10.2011 по 25.12.2011
Жанр: Приключения, фэнтези
Количество эпизодов ТВ: 13
Продолжительность: 25 мин
Режиссёр: Аоки Эй
Автор оригинала: Уробути Гэн
Описание:
Студия:


  Двести лет назад три могущественных клана создали в далекой Японии на землях городка Фуюки арену магической битвы за Святой Грааль. Смысл ритуала прост – семеро участников-магов, которых зовут Мастерами, по воле Грааля призывают себе из Акаши, мирового эфира, бойцов-Слуг – героев былого и грядущего. Дальше правил нет, и остаться должен только один. Ему и достанется величайший артефакт, который выполнит любое желание победителя. Вот только первые три войны окончились тотальным истреблением сторон и не достигли цели. Грядет Четвертая война, и на этот раз все знамения говорят – Святой Грааль будет явлен и обретет хозяина!
  Наследники основателей по-разному подошли к новому этапу игры. Токиоми, глава клана Тосака, находится в расцвете сил и намерен лично бороться за победу. Второй клан выродился, и его боец Кария Мато почти что лишен магических способностей. Клан Айнцберн, последний из троицы, для повышения шансов заранее принял в свои ряды знаменитого мага-убийцу по имени Кирицугу Эмия. А еще Грааль выбрал в число игроков английского лорда, его вороватого ученика, серийного маньяка и молодого священника. Трудно сказать насчет святости, но с политкорректностью у авторов сериала точно все в порядке!
© Hollow

Названия эпизодов
01. Summoning of the Heroes
02. False Start
03. Land Of Winter Trees
04. Blade of the Demonic Spear
05. The Vicious Beast Roars
06. Night of Schemes
07. The Remote Forest
08. The Magus Killer
09. Master and Servant
10. Rin's Adventure
11. Holy Grail Question and Answer
12. Invitation of the Holy Grail
13. The Forbidden Mad Feast


Источник рипа: BD-Rip [Yoursei-raws]
Автор рипа\энкод: Renmei Rei
Тип видео: Без хардсаба
Контейнер: AVI
Видео: XviD (Build 65) | 720 x 404 пикселей | 23,976 кадра/сек | ~1500 Кбит/сек ;

Аудио:
RUS: AC-3 | 48.0 КГц | стерео | 256 Кбит/сек;
JAP:  AC-3 | 48.0 КГц | стерео | 256 Кбит/сек

Озвучивание: любительская двухголосая (муж./жен.) от Valkrist & Yuuhi (Moscow City Animegroup)

MediaInfo: - показать
Общее
Полное имя                               : D:\Video\HWP\[AnimeReactor.RU] Fate Zero (TV-1)[1-13 of 13][BDRip][HWP]\Fate Zero (TV-1)[01 of 13][BDRip][720x404 XviD AC3x2][MCA & AnimeReactor.RU].avi
Формат                                   : AVI
Формат/Информация                        : Audio Video Interleave
Размер файла                             : 694 Мбайт
Продолжительность                        : 47 м.
Общий поток                              : 2027 Кбит/сек
Программа кодирования                    : VirtualDubModRus 1.5.10.2 (build 2542/release)
Библиотека кодирования                   : VirtualDubMod build 2542/release

Видео
Идентификатор                            : 0
Формат                                   : MPEG-4 Visual
Профиль формата                          : Advanced Simple@L5
Параметр BVOP формата                    : 2
Параметр QPel формата                    : Нет
Параметр GMC формата                     : Без точки перехода
Параметр матрицы формата                 : Default (H.263)
Идентификатор кодека                     : XVID
Идентификатор кодека/Подсказка           : XviD
Продолжительность                        : 47 м.
Битрейт                                  : 1501 Кбит/сек
Ширина                                   : 720 пикселей
Высота                                   : 404 пикселя
Соотношение сторон                       : 16:9
Частота кадров                           : 23,976 кадра/сек
Цветовое пространство                    : YUV
Субдискретизация насыщенности            : 4:2:0
Битовая глубина                          : 8 бит
Тип развёртки                            : Прогрессивная
Метод сжатия                             : С потерями
Бит/(Пиксели*Кадры)                      : 0.215
Размер потока                            : 514 Мбайт (74%)
Библиотека кодирования                   : XviD 65

Аудио #1
Идентификатор                            : 1
Формат                                   : AC-3
Формат/Информация                        : Audio Coding 3
Расширение режима                        : CM (complete main)
Параметр Endianness формата              : Big
Идентификатор кодека                     : 2000
Продолжительность                        : 47 м.
Вид битрейта                             : Постоянный
Битрейт                                  : 256 Кбит/сек
Каналы                                   : 2 канала
Расположение каналов                     : Front: L R
Частота                                  : 48,0 КГц
Битовая глубина                          : 16 бит
Метод сжатия                             : С потерями
Размер потока                            : 87,7 Мбайт (13%)
Выравнивание                             : Разделение по промежуткам
Продолжительность промежутка             : 42  мс. (1,00 видеокадр)
Время предзагрузки промежутка            : 500  мс.
Заголовок                                : Russian [Valkrist & Yuuhi]

Аудио #2
Идентификатор                            : 2
Формат                                   : AC-3
Формат/Информация                        : Audio Coding 3
Расширение режима                        : CM (complete main)
Параметр Endianness формата              : Big
Идентификатор кодека                     : 2000
Продолжительность                        : 47 м.
Вид битрейта                             : Постоянный
Битрейт                                  : 256 Кбит/сек
Каналы                                   : 2 канала
Расположение каналов                     : Front: L R
Частота                                  : 48,0 КГц
Битовая глубина                          : 16 бит
Метод сжатия                             : С потерями
Размер потока                            : 87,7 Мбайт (13%)
Выравнивание                             : Разделение по промежуткам
Продолжительность промежутка             : 42  мс. (1,00 видеокадр)
Время предзагрузки промежутка            : 500  мс.
Заголовок                                : Japanese [Original]


Скриншоты: - показать
Дядя Шарик
Релиз от
источник
ARRU & Moscow City Animegroup - MCA & RenmeiRei & REBUILD ARRU
А вы ничего не забыли?
наверх

Последние поступления