ARRU





Accel World
Ускоренный мир (TV)(2012)[01-24 из 24][BD-Rip][720p]   Bookmark


Скачать вход / регистрация
Тема на форуме Обсудить аниме (комментариев: 71)
Обсуждение раздачи (комментариев: 57)
ОписаниеAccel World / Ускоренный мир (TV)(2012)[01-24 из 24][BD-Rip][720p]
Английское название: Accel World
Русское название: Ускоренный мир

Страна: Япония
Выпуск: c 07.04.2012 по 22.09.2012
Жанр: приключения, фантастика

Студия:

Режиссёр: Охара Масакадзу
Автор оригинала: Кавахара Рэки

Описание:
С внешностью 14-летнему Харуюки Арите не повезло. Толстый коротышка – он и в 2040 году такой; девушки не любят, хулиганы обижают, а за человека считают лишь друзья детства Тиюри и Такуму. Благодаря вживленному нейролинку тридцать лет спустя люди ходят в виртуал, как мы в Интернет, но и там бедняге не легче. Аватар зависит от реальных возможностей и самовосприятия, если ты душой и телом баран, то львом уже не станешь. Вот и бегает по виртуальной школе одинокий поросенок, отводит душу игрой в теннис со стенкой, где и правда добился успехов. Но вдруг случилось странное – Хару пригласила на разговор сама Куроюкихимэ, принцесса Черноснежка, самая красивая и загадочная девушка школы!

Черноснежка предложила Арите разорвать шаблон и выйти из образа неудачника путем участия в программе «Взрыв мозга». У испытуемого тысячекратно ускоряется мышление, мир застывает и меняется реальностью второго порядка – Ускоренным миром, действовать в котором могут только избранные. А дальше просто – жестокая игра, в которой надо выжить, в идеале собрать свой клан и одолеть конкурентов. Конечно же, Хару согласился, ведь теперь в миг ускорения он не поросенок, а Серебряный Ворон, плечистый красавец и верный слуга Черного Лотоса, своей подруги, учителя и госпожи. Осталась самая малость – победить во имя любви!

© Hollow World Art

Названия эпизодов:
01. Acceleration
02. Transformation
03. Investigation
04. Declaration
05. Aviation
06. Retribution
07. Restoration
08. Temptation
09. Escalation
10. Activation
11. Obligation
12. Absolution
13. Violation
14. Arrestation
15. Destruction
16. Imagination
17. Fragmentation
18. Invitation
19. Revolution
20. Domination
21. Insurrection
22. Determination
23. Consolidation
24. Reincarnation  


Качество рипа: BDRip
Автор рипа: Winter - RG Pantheon
Тип видео: Без хардсаба
Контейнер: mkv
Видео: AVC (x264)| 10 bit |  1280x720 pixels | ~3000 Kbps | 23.976 fps

Внимание:
Видео 10-битное! Скачайте и установите свежую версию СССР или K-Lite (x32) и смотрите видео с помощью встроенного туда плеера MPC-HC,  или установите сборку KMP с использованием LAV Filters. Как еще один вариант, можно использовать VLC.

Аудио:
RUS: AC3 | 48000Hz | 192 Kbps | 2ch
JAP: Vorbis | 48000Hz | ~256 Kbps | 2ch

Озвучивание: JeFerSon & Persona99
Техподержка: Beonikol

Перевод и субтитры: Antravoco & Fratelli (полные/вспомогательные)
редакторы: Advokat, pantsurevolution, переводчик/оформление: Kekcelt,
перевод песен: Мария Гостюхина

MediaInfo: - показать

Общее
Формат                           : Matroska
Версия формата                   : Version 2
Размер файла                     : 649 Мбайт
Продолжительность                : 23 м.
Режим общего битрейта            : Переменный
Общий поток                      : 3831 Кбит/сек
Дата кодирования                 : UTC 2013-03-17 04:06:35
Программа кодирования            : mkvmerge v3.4.0 сборка от May 15 2010 09:38:20
Библиотека кодирования           : libebml v0.8.0 + libmatroska v0.9.0

Видео
Идентификатор                    : 1
Формат                           : AVC
Формат/Информация                : Advanced Video Codec
Профиль формата                  : High 10@L4.1
Параметр CABAC формата           : Да
Параметр ReFrames формата        : 9 кадров
Идентификатор кодека             : V_MPEG4/ISO/AVC
Продолжительность                : 23 м.
Битрейт                          : 3306 Кбит/сек
Ширина                           : 1280 пикселей
Высота                           : 720 пикселей
Соотношение сторон               : 16:9
Частота кадров                   : 23,976 кадра/сек
Цветовое пространство            : YUV
Субдискретизация насыщенности    : 4:2:0
Битовая глубина                  : 10 бит
Тип развёртки                    : Прогрессивная
Бит/(Пиксели*Кадры)              : 0.150
Размер потока                    : 561 Мбайт (86%)
Заголовок                        : rip by Winter - RG Pantheon
Библиотека кодирования           : x264 core 125 r2200 999b753
Default                          : Да
Forced                           : Нет

Аудио #1
Идентификатор                    : 2
Формат                           : AC-3
Формат/Информация                : Audio Coding 3
Расширение режима                : CM (complete main)
Идентификатор кодека             : A_AC3
Продолжительность                : 23 м.
Вид битрейта                     : Постоянный
Битрейт                          : 192 Кбит/сек
Каналы                           : 2 канала
Расположение каналов             : Front: L R
Частота                          : 48,0 КГц
Битовая глубина                  : 16 бит
Метод сжатия                     : С потерями
Размер потока                    : 32,5 Мбайт (5%)
Заголовок                        : JeFerSon & Persona99
Язык                             : Russian
Default                          : Да
Forced                           : Нет

Аудио #2
Идентификатор                    : 3
Формат                           : Vorbis
Параметр Floor формата           : 1
Идентификатор кодека             : A_VORBIS
Продолжительность                : 23 м.
Вид битрейта                     : Переменный
Битрейт                          : 256 Кбит/сек
Каналы                           : 2 канала
Частота                          : 48,0 КГц
Метод сжатия                     : С потерями
Размер потока                    : 43,4 Мбайт (7%)
Заголовок                        : Original
Библиотека кодирования           : libVorbis (Schaufenugget) (20101101 (Schaufenugget))
Язык                             : Japanese
Default                          : Нет
Forced                           : Нет

Текст #1
Идентификатор                    : 4
Формат                           : ASS
Идентификатор кодека             : S_TEXT/ASS
Идентификатор кодека/Информация  : Advanced Sub Station Alpha
Метод сжатия                     : Без потерь
Заголовок                        : надписи (Antravoco & Fratelli)
Язык                             : Russian
Default                          : Да
Forced                           : Нет

Текст #2
Идентификатор                    : 5
Формат                           : ASS
Идентификатор кодека             : S_TEXT/ASS
Идентификатор кодека/Информация  : Advanced Sub Station Alpha
Метод сжатия                     : Без потерь
Заголовок                        : полные (Antravoco & Fratelli)
Язык                             : Russian
Default                          : Нет
Forced                           : Нет


Скриншоты: - показать



От себя:
Данный релиз был предоставлен товарищем Aglenn, за что ему огромное спасибо.
Дядя Шарик
Релиз от
источник
ARRU & JeFerSon & Get Smart & ADVANTAGE & REBUILD ARRU
А вы ничего не забыли?
наверх

Последние поступления