ARRU





Basilisk: The Kouga Ninja Scrolls
Василиск (2005)[01-24 из 24][BDRip][HWP]   Bookmark


Скачать вход / регистрация
Тема на форуме Обсудить аниме (комментариев: 31)
Обсуждение раздачи (комментариев: 31)
ОписаниеBasilisk: The Kouga Ninja Scrolls / Василиск (2005)[01-24 из 24][BDRip][HWP]
Оригинальное название: Basilisk: Kôga ninpô chô
Английское название: Basilisk: The Kouga Ninja Scrolls
Русское название: Василиск
Страна: Япония
Год выпуска : 2005
Жанр: самурайский боевик, драма, мистика
Категория: TV
Количество эпизодов: 24 эпизода
Продолжительность: 25 минут
Студия: Gonzo Digimation
Режиссёр: Кидзаки Фуминори
Снято по манге: Basilisk
Автор оригинала: Ямада Футаро

Описание:
 Два клана ниндзя, Ига и Кога, издревле враждовали друг с другом. И сверкали мечи, и лилась реками кровь, до тех пор пока на пути древней вражды не встал местный лорд Хаттори Хандзо. И тогда были связаны два клана нерушимым договором, запрещающим стародавнюю вражду.
 Время шло, вековая лютая ненависть, хоть и поугасла немного, все равно продолжала тлеть в сердцах непримиримых. Но встали между кланами двое влюбленных, юноша и девушка, два юных сердца, вознамерившиеся вступить в союз и тем самым покончить с древними распрями.
 Однако судьба оказалась немилосердна. Волею правителей, которые воспользовались враждой Ига и Кога в собственных целях, договор о ненападении был расторгнут.
 И было сказано, что от каждого клана выступят, по десять воинов-ниндзя, и будут они сражаться до последней капли крови, и тот, кто выживет в этой смертельной битве, будет объявлен победителем. Десять человек с каждой стороны. Десять жизней от каждого клана. Двадцать смертей начертано на заветном свитке...
©

Названия эпизодов: - показать

1. Любить и убивать друг друга
2. Новое начало
3. Страшное насекомое, страшная жестокость
4. Обитель демона, ночные прогулки
5. Обычаи ниндзя
6. Слёзы и любовь
7. Ад человеческой кожи
8. Кровавый туман, пощады не будет
9. Грусть и бесконечный дождь
10. Приказ повелителя
11. Камни и отчаяние
12. Волшебный свет воспоминаний
13. Безумный танец бабочек
14. Лепестки на волнах
15. Бурное море, последний путь
16. Мимолётная картина нежных чувств
17. Скитающиеся во тьме
18. Тьма и заря
19. Неукротимая женщина и заговор
20. Благие намерения
21. Кагэро. Очарование смерти
22. Смертельный ужас
23. Отблеск видений
24. Встретимся в следующей жизни


Источник рипа: BD-Rip [elnino243]
Автор рипа\энкод: Renmei Rei
Тип видео: Без хардсаба
Контейнер: AVI
Видео: XviD (Build 65) | 720 x 404 пикселей | 23,976 кадра/сек | ~1500 Кбит/сек ;

Аудио:
RUS: AC-3 | 48.0 КГц | стерео | 192 Кбит/сек;
JAP:  AC-3 | 48.0 КГц | стерео | 256 Кбит/сек

Субтитры: русские | отдельно (SRT)[Mega-Anime]
Озвучивание: профессиональный многоголосый закадровый  от Мега-Аниме

MediaInfo: - показать
Общее
Полное имя                               : D:\Video\HWP\[AnimeReactor.RU] Basilisk (TV)[1-24 of 24][BDRip][HWP]\Basilisk [01 of 24][BDRip][720x404 XviD AC3x2][AnimeReactor.RU].avi
Формат                                   : AVI
Формат/Информация                        : Audio Video Interleave
Размер файла                             : 338 Мбайт
Продолжительность                        : 24 м.
Общий поток                              : 1962 Кбит/сек
Программа кодирования                    : VirtualDubModRus 1.5.10.2 (build 2542/release)
Библиотека кодирования                   : VirtualDubMod build 2542/release

Видео
Идентификатор                            : 0
Формат                                   : MPEG-4 Visual
Профиль формата                          : Advanced Simple@L5
Параметр BVOP формата                    : 2
Параметр QPel формата                    : Нет
Параметр GMC формата                     : Без точки перехода
Параметр матрицы формата                 : Default (MPEG)
Идентификатор кодека                     : XVID
Идентификатор кодека/Подсказка           : XviD
Продолжительность                        : 24 м.
Битрейт                                  : 1500 Кбит/сек
Ширина                                   : 720 пикселей
Высота                                   : 404 пикселя
Соотношение сторон                       : 16:9
Частота кадров                           : 23,976 кадра/сек
Цветовое пространство                    : YUV
Субдискретизация насыщенности            : 4:2:0
Битовая глубина                          : 8 бит
Тип развёртки                            : Прогрессивная
Метод сжатия                             : С потерями
Бит/(Пиксели*Кадры)                      : 0.215
Размер потока                            : 259 Мбайт (76%)
Библиотека кодирования                   : XviD 65

Аудио #1
Идентификатор                            : 1
Формат                                   : AC-3
Формат/Информация                        : Audio Coding 3
Профиль формата                          : Dolby Digital
Расширение режима                        : CM (complete main)
Параметр Endianness формата              : Big
Идентификатор кодека                     : 2000
Продолжительность                        : 24 м.
Вид битрейта                             : Постоянный
Битрейт                                  : 192 Кбит/сек
Каналы                                   : 2 канала
Расположение каналов                     : Front: L R
Частота                                  : 48,0 КГц
Битовая глубина                          : 16 бит
Метод сжатия                             : С потерями
Размер потока                            : 33,1 Мбайт (10%)
Выравнивание                             : Разделение по промежуткам
Продолжительность промежутка             : 42  мс. (1,00 видеокадр)
Время предзагрузки промежутка            : 500  мс.
Заголовок                                : Russian [Mega-Anime]

Аудио #2
Идентификатор                            : 2
Формат                                   : AC-3
Формат/Информация                        : Audio Coding 3
Расширение режима                        : CM (complete main)
Параметр Endianness формата              : Big
Идентификатор кодека                     : 2000
Продолжительность                        : 24 м.
Вид битрейта                             : Постоянный
Битрейт                                  : 256 Кбит/сек
Каналы                                   : 2 канала
Расположение каналов                     : Front: L R
Частота                                  : 48,0 КГц
Битовая глубина                          : 16 бит
Метод сжатия                             : С потерями
Размер потока                            : 44,2 Мбайт (13%)
Выравнивание                             : Разделение по промежуткам
Продолжительность промежутка             : 42  мс. (1,00 видеокадр)
Время предзагрузки промежутка            : 500  мс.
Заголовок                                : Japanese [Original]


Скриншоты: - показать


Дядя Шарик
Релиз от
источник
ARRU & RenmeiRei & REBUILD ARRU
А вы ничего не забыли?
наверх

Последние поступления