ARRU





Binbougami ga!
Нищебог же!(TV)(2012)[01-13 из 13][BD-Rip][720p]   Bookmark


Скачать вход / регистрация
Тема на форуме Обсудить аниме (комментариев: 11)
Обсуждение раздачи (комментариев: 18)
ОписаниеBinbougami ga! / Нищебог же!(TV)(2012)[01-13 из 13][BD-Rip][720p]
Английское название: Binbougami ga!
Русское название: Нищебог же!

Страна: Япония
Выпуск: c 05.07.2012 по 27.09.2012
Жанр: приключения, комедия

Студия:

Режиссёр: Фудзита Ёити
Снято по манге: Binbougami ga!
Автор оригинала: Сукэно Ёсиаки

Описание:
У 16-летней Итико Сакуры есть все – здоровье, красота, богатство и неплохие мозги под оболочкой пепельной блондинки. Причина объяснима – Сакура обладает способностью притягивать «энергию счастья», дополняя немалый запас от рождения еще и чужой фортуной. Подобный вампиризм приносит несчастье окружающим – в итоге девушка одинока, живет лишь со старым дворецким, не имеет друзей и считает остальных существами второго сорта. Богиня злосчастья Момидзи прибывает, чтобы исправить дисбаланс – и с ходу терпит обиднейшее фиаско! Итико не так проста – в ее жилах, похоже, течет кровь богов удачи, что позволяет не только на равных сражаться с небесной гостьей, но и от души обзывать ее плоскодонкой!

Что ж, богине спешить некуда, и она перешла от штурма к планомерной осаде, стараясь изучить своего врага, его силу и слабости. Постоянные схватки пошли на пользу обеим героиням: одна обрела волю и мотивацию, а другая стала думать и работать над собой. Момидзи поняла, что вместо грубого опустошения должна помочь своей новой знакомой, а может, и дальней родственнице, постепенно стать проще и лучше. До Итико тоже стало доходить, что жить веселее, если тратить благословение судьбы не только на себя. Иначе что это за энергия счастья, если не с кем даже съесть праздничный пирог?!

© Hollow World Art

Названия эпизодов:
01. You May Be a God, but Aren`t You More Like the God of Flatness Than the God of Misfortune?
02. It Feels Like The "God vs. Girl" Fight Has Just Begun!
03. What Do You Mean "Somehow?"
04. He Shrank!
05. Who`s the Small-breasted One Now? Huh? Huh!? Huh!!?
06. Open Your Eyes!!!!
07. You`re Saying I Was Raised Like a Man? / I`ll Never Forget What Happened Today!!
08. Call Me By My Given Name
09. Eh?! You Said, `After All This`?! / There`s No Way That Happens After Just Two Minutes!!!!
10. It`s Like Secretly Mixing Pumpkin into a Stew in Order to Feed It to a Child Who Hates Pumpkin
11. ...Who Are You?!
12. Sometime, Call Me By My Name
13. You Already Have the Answer to That



Качество рипа: BDRip
Автор рипа: Winter - RG Pantheon
Тип видео: Без хардсаба
Контейнер: mkv
Видео: AVC (x264)| 10 bit |  1280x720 pixels | ~3300 Kbps | 23.976 fps

Внимание:
Видео 10-битное! Скачайте и установите свежую версию СССР или K-Lite (x32) и смотрите видео с помощью встроенного туда плеера MPC-HC,  или установите сборку KMP с использованием LAV Filters. Как еще один вариант, можно использовать VLC.

Аудио:
RUS-1: AC3 | 48000Hz | 192 Kbps | 2ch - Persona99 & Vulpes Vulpes (GetSmart)
RUS-2: AC3 | 48000Hz | 192 Kbps | 2ch - Carrier88
JAP: Vorbis | 48000Hz | ~256 Kbps | 2ch

Перевод и субтитры:BO3DYX

MediaInfo: - показать

Общее
Формат                           : Matroska
Версия формата                   : Version 2
Размер файла                     : 725 Мбайт
Продолжительность                : 23 м.
Режим общего битрейта            : Переменный
Общий поток                      : 4247 Кбит/сек
Дата кодирования                 : UTC 2013-03-06 10:47:50
Программа кодирования            : mkvmerge v3.4.0 сборка от May 15 2010 09:38:20
Библиотека кодирования           : libebml v0.8.0 + libmatroska v0.9.0

Видео
Идентификатор                    : 1
Формат                           : AVC
Формат/Информация                : Advanced Video Codec
Профиль формата                  : High 10@L4.1
Параметр CABAC формата           : Да
Параметр ReFrames формата        : 9 кадров
Идентификатор кодека             : V_MPEG4/ISO/AVC
Продолжительность                : 23 м.
Битрейт                          : 3523 Кбит/сек
Ширина                           : 1280 пикселей
Высота                           : 720 пикселей
Соотношение сторон               : 16:9
Частота кадров                   : 23,976 кадра/сек
Цветовое пространство            : YUV
Субдискретизация насыщенности    : 4:2:0
Битовая глубина                  : 10 бит
Тип развёртки                    : Прогрессивная
Бит/(Пиксели*Кадры)              : 0.159
Размер потока                    : 601 Мбайт (83%)
Заголовок                        : rip by Winter - RG Pantheon
Библиотека кодирования           : x264 core 129 r2230 1cffe9f
Default                          : Нет
Forced                           : Нет

Аудио #1
Идентификатор                    : 2
Формат                           : AC-3
Формат/Информация                : Audio Coding 3
Расширение режима                : CM (complete main)
Идентификатор кодека             : A_AC3
Продолжительность                : 23 м.
Вид битрейта                     : Постоянный
Битрейт                          : 192 Кбит/сек
Каналы                           : 2 канала
Расположение каналов             : Front: L R
Частота                          : 48,0 КГц
Битовая глубина                  : 16 бит
Метод сжатия                     : С потерями
Размер потока                    : 32,8 Мбайт (5%)
Заголовок                        : Persona99 & Vulpes Vulpes (GetSmart)
Язык                             : Russian
Default                          : Да
Forced                           : Нет

Аудио #2
Идентификатор                    : 3
Формат                           : AC-3
Формат/Информация                : Audio Coding 3
Расширение режима                : CM (complete main)
Идентификатор кодека             : A_AC3
Продолжительность                : 23 м.
Вид битрейта                     : Постоянный
Битрейт                          : 192 Кбит/сек
Каналы                           : 2 канала
Расположение каналов             : Front: L R
Частота                          : 48,0 КГц
Битовая глубина                  : 16 бит
Метод сжатия                     : С потерями
Размер потока                    : 32,8 Мбайт (5%)
Заголовок                        : Carrier88
Язык                             : Russian
Default                          : Нет
Forced                           : Нет

Аудио #3
Идентификатор                    : 4
Формат                           : Vorbis
Параметр Floor формата           : 1
Идентификатор кодека             : A_VORBIS
Продолжительность                : 23 м.
Вид битрейта                     : Переменный
Битрейт                          : 256 Кбит/сек
Каналы                           : 2 канала
Частота                          : 48,0 КГц
Метод сжатия                     : С потерями
Размер потока                    : 43,7 Мбайт (6%)
Заголовок                        : Original
Библиотека кодирования           : libVorbis (Schaufenugget) (20101101 (Schaufenugget))
Язык                             : Japanese
Default                          : Нет
Forced                           : Нет

Текст #1
Идентификатор                    : 5
Формат                           : ASS
Идентификатор кодека             : S_TEXT/ASS
Идентификатор кодека/Информация  : Advanced Sub Station Alpha
Метод сжатия                     : Без потерь
Заголовок                        : BO3DYX (надписи)
Язык                             : Russian
Default                          : Да
Forced                           : Нет

Текст #2
Идентификатор                    : 6
Формат                           : ASS
Идентификатор кодека             : S_TEXT/ASS
Идентификатор кодека/Информация  : Advanced Sub Station Alpha
Метод сжатия                     : Без потерь
Заголовок                        : BO3DYX
Язык                             : Russian
Default                          : Нет
Forced                           : Нет


Скриншоты: - показать




От себя:
Данный релиз был предоставлен товарищем Yurasyk, за что ему огромное спасибо.
Дядя Шарик
Релиз от
источник
ARRU & Carrier88 & Get Smart & Vulpes Vulpes & REBUILD ARRU
А вы ничего не забыли?
наверх

Последние поступления