ARRU





Toaru Kagaku no Railgun (TV-1)
Некий научный Рейлган (первый сезон)(2009)[01-24 из 24][BD-Rip][HWP]   Bookmark


Скачать вход / регистрация
Тема на форуме Обсудить аниме (комментариев: 67)
Обсуждение раздачи (комментариев: 17)
Смотреть онлайн
ОписаниеToaru Kagaku no Railgun (TV-1) / Некий научный Рейлган (первый сезон)(2009)[01-24 из 24][BD-Rip][HWP]
Оригинальное название: To Aru Kagaku no Railgun
Английское название: A Certain Scientific Railgun
Русское название: Некий научный Рейлган
Страна: Япония
Период трансляции: c 03.10.2009 по 20.03.2010
Жанр: приключения, комедия, фантастика
Количество эпизодов ТВ: 24
Продолжительность: 25 мин
Режиссёр: Нагай Тацуюки
Сценарий: Минаками Сэйси
Автор оригинала: Камати Кадзума
Композитор: Иути Майко
Студия:


Описание:
Как известно из «Индекса Волшебства», где-то на островах Южной Японии раскинулся город Академия, большинство жителей которого учатся и работают в школах юных эсперов. Обладатели паранормальных способностей в поте лица трудятся, чтобы познать свой дар и поднять владение им на новую высоту. Гордость школы Токивадай и всей Академии Микото Мисака – третья по силе среди известных миру эсперов высшего уровня. У «Электрической принцессы» много полезных умений, одно из которых – ручной рейлган, то есть способность силой мысли разогнать монетку где-то до трех Махов (на другом конце траектории стоять не рекомендуется). Но всех усилий Микото пока не хватает для решения двух насущных задач: отбиться от юрийных домогательств младшей подруги Куроко Сирай и разобраться с наглым парнем по имени Тома Камидзё!

Сериал, выросший из мира «Индекса», посвящен повседневной жизни Микото и ее друзей: учебе и общению, отдыху и развлечениям, помощи местным силам правопорядка. Нам предстоит встретить немало знакомых героев и расширить представление о мире пси-способностей. А злосчастный Камидзё все равно свое получит!

© Hollow

Названия эпизодов:
01. Electro Master
02. For Working Under the Blazing Sun, Proper Hydration is Required
03. Tokiwadai Targeted
04. Urban Legend
05. A Certain Newbie Training of Two
06. Everyone Likes This Sort of Thing
07. Ability and Power
08. Level Upper
09. Majority Report
10. Silent Majority
11. Kiyama-sensei
12. AIM Burst
13. I Understand That Bikinis Make Eyes Wander, But One-pieces Bring Out Curves So They Match Thin Bodies Better
14. Special Training
15. Skill Out
16. University Town
17. Summer Holiday's Spelling
18. Cypress Park
19. Midsummer Festival
20. Poltergeist
21. Voice
22. Level 6 (Those Without Immortal Bodies Who Reach the Will of Heaven)
23. What Are Your Eyes Seeing Now?
24. Dear My Friends


Источник рипа: BD-Rip [Yoursei-raws]
Автор рипа\энкод: Renmei Rei
Тип видео: Без хардсаба
Контейнер: AVI
Видео: XviD (Build 65) | 720 x 404 пикселей | 23,976 кадра/сек | ~1500 Кбит/сек ;

Аудио:
RUS: mp3 | 48.0 КГц | стерео | 192 Кбит/сек;
JAP:  AC-3 | 48.0 КГц | стерео | 256 Кбит/сек

Субтитры: - показать
Тех. данные: русские | отдельно (полные/вспомогательные)(SRT, SSA)
Переводчик/Перевод песен: Sora_P3_Heaven [Форум Shojosei]
Редактор/Тайм-код/Оформление: Stan WarHammer


Озвучивание: любительский одноголосый (жен.) от Persona99

MediaInfo: - показать
Общее
Полное имя                               : D:\Video\HWP\[AnimeReactor.RU] Toaru Kagaku no Railgun (TV-1)[1-24 of 24][BDRip][HWP]\To Aru Kagaku no Railgun [01 of 24][BDRip][720x404 XviD MP3 AC3][GetSmart & Animereactor.ru].avi
Формат                                   : AVI
Формат/Информация                        : Audio Video Interleave
Размер файла                             : 354 Мбайт
Продолжительность                        : 25 м.
Общий поток                              : 1962 Кбит/сек
Программа кодирования                    : VirtualDubModRus 1.5.10.2 (build 2542/release)
Библиотека кодирования                   : VirtualDubMod build 2542/release

Видео
Идентификатор                            : 0
Формат                                   : MPEG-4 Visual
Профиль формата                          : Advanced Simple@L5
Параметр BVOP формата                    : 2
Параметр QPel формата                    : Нет
Параметр GMC формата                     : Без точки перехода
Параметр матрицы формата                 : Default (MPEG)
Идентификатор кодека                     : XVID
Идентификатор кодека/Подсказка           : XviD
Продолжительность                        : 25 м.
Битрейт                                  : 1500 Кбит/сек
Ширина                                   : 720 пикселей
Высота                                   : 404 пикселя
Соотношение сторон                       : 16:9
Частота кадров                           : 23,976 кадра/сек
Цветовое пространство                    : YUV
Субдискретизация насыщенности            : 4:2:0
Битовая глубина                          : 8 бит
Тип развёртки                            : Прогрессивная
Метод сжатия                             : С потерями
Бит/(Пиксели*Кадры)                      : 0.215
Размер потока                            : 270 Мбайт (76%)
Библиотека кодирования                   : XviD 65

Аудио #1
Идентификатор                            : 1
Формат                                   : MPEG Audio
Версия формата                           : Version 1
Профиль формата                          : Layer 3
Идентификатор кодека                     : 55
Идентификатор кодека/Подсказка           : MP3
Продолжительность                        : 25 м.
Вид битрейта                             : Постоянный
Битрейт                                  : 192 Кбит/сек
Каналы                                   : 2 канала
Частота                                  : 48,0 КГц
Метод сжатия                             : С потерями
Размер потока                            : 34,6 Мбайт (10%)
Выравнивание                             : Соединение по промежуткам
Продолжительность промежутка             : 42  мс. (1,00 видеокадр)
Время предзагрузки промежутка            : 504  мс.
Заголовок                                : Russian [Persona99]
Библиотека кодирования                   : LAME3.82

Аудио #2
Идентификатор                            : 2
Формат                                   : AC-3
Формат/Информация                        : Audio Coding 3
Расширение режима                        : CM (complete main)
Параметр Endianness формата              : Big
Идентификатор кодека                     : 2000
Продолжительность                        : 25 м.
Вид битрейта                             : Постоянный
Битрейт                                  : 256 Кбит/сек
Каналы                                   : 2 канала
Расположение каналов                     : Front: L R
Частота                                  : 48,0 КГц
Битовая глубина                          : 16 бит
Метод сжатия                             : С потерями
Размер потока                            : 46,1 Мбайт (13%)
Выравнивание                             : Разделение по промежуткам
Продолжительность промежутка             : 42  мс. (1,00 видеокадр)
Время предзагрузки промежутка            : 500  мс.
Заголовок                                : Japanese [Original]


Скриншоты: - показать





Дядя Шарик
Релиз от
источник
ARRU & Get Smart & RenmeiRei & REBUILD ARRU
А вы ничего не забыли?
наверх

Последние поступления