ARRU





Kyo Kara Maoh! TV-1
Отныне Мао, король демонов! (первый сезон)(2004)[01-39 из 39][DVD-Rip]   Bookmark


Скачать вход / регистрация
Тема на форуме Обсудить аниме (комментариев: 108)
Обсуждение раздачи (комментариев: 217)
Смотреть онлайн
ОписаниеKyo Kara Maoh! TV-1 / Отныне Мао, король демонов! (первый сезон)(2004)[01-39 из 39][DVD-Rip]
Оригинальное название: 今日から(マ王!
Английское название: Kyo Kara Maoh!
Русское название: Отныне Мао, король демонов!
Страна: Япония
Год выпуска / период трансляции: c 03.04.2004 по 12.02.2005
Жанр: приключения, комедия, фэнтези, сёдзё
Категория: TV
Количество эпизодов: 39
Продолжительность: 25 мин.
Режиссёр: Нисимура Дзюндзи
Автор оригинала: Такабаяси Томо
Студия:


Описание:
  Зря, зря 15-летний Юри Сибуя вступился за одноклассника Кэна Мурату. Того и след простыл, а злые хулиганы затащили героя в женский туалет и от души макнули в унитаз. Самое интересное, что очнулся Юри в новом мире, которым правит магическая раса мазоку, иные тамошние расы их зовут просто – демоны. Ну а сам Юри, как положено, после ряда приключений узнает, что он не просто благородный мазоку, а еще и протеже легендарного Повелителя демонов, дух которого раз в несколько столетий выбирает себе преемника. Оставив до поры до времени надежду вернуться на родину и задать пару вопросов папе с мамой, Юри, как человек ответственный, принимает бразды правления Новой Империей у сексапильной королевы Сесиль.
  А доля королевская медом не мазана… С одной стороны, против воли Повелителя в открытую не пойдешь. С другой – почти все вельможи затаились и выжидают: что за странный лидер такой, да не самозванец ли, часом? Историю срочно пришлось учить, географию, экономику, обстановку военно-политическую, нравы и обычаи, в конце концов. И то не раз от беды спасали новые друзья – канцлер Гюнтер и принц крови Конрад, кандидат в брачные партнеры Вольфрам да еще хитрован Мурата, оказавшийся воплощением местного Верховного Мага. Но вот пообвыкся Юри на должности, съездил домой на каникулы, порешал вопросы внешней и внутренней политики и понял – жизнь зря проходит, пора мир спасать!
© Hollow  

Названия эпизодов:
01. Flushed Away to a Strange World
02. Decisive Battle! Beautiful Boy VS Baseball Boy!
03. Shibuya Yuuri! I Am Maou
04. Now it's the Ultimate Weapon?!
05. Sailor Uniform and the Irrational Child
06. The Cannibal Maken. The Fear of Morgif?
07. Gone Wild? Straying? Maken Activated!
08. The Conspiracy in the Moonlight
09. The Stolen Treasure
10. The Demon Hand Approaching!
11. Across the Dimensions, a War Begins
12. The Chain of Love and Fate
13. The Bride, Yuuri and Gwendal
14. Yuuri at Hard Labor
15. Rain Falls over the Desert
16. Maou's Investigation Note
17. I'll Remarry!
18. For That Love
19. Hero vs. Maou - Part One
20. Hero vs. Maou - Part Two
21. Dangerous Visitor
22. The Man of Fate
23. The Race of Flames
24. The Man who cannot be Forgiven
25. The Past and Future
26. In the End of the Life Cycle
27. Conrad's Arm
28. Another Brutal Meeting
29. Introduction to Shivering
30. Forbidden Box
31. The End of the Land
32. The Key to Memories
33. Intense Running! Snow Race
34. Fierce Fighting Coliseum!?
35. The Snow which Falls Down on the Ground
36. Farewell Konrad
37. Location of the Box
38. Gunter vs. Konrad
39. You are Maou


Источник рипа: DVD9 & DVD5
Автор рипа\энкод: Silent Spider
Тип видео: Без хардсаба
Контейнер: MKV
Видео: AVC (x264 core 129) | 848 x 480 пикселей | 23,976 кадра/сек | ~1500 Кбит/сек ;

Аудио:
RUS: mp3 | 48.0 КГц | стерео | 160 Кбит/сек;
JAP:  AC-3 | 48.0 КГц | стерео | 192 Кбит/сек

Субтитры: - показать
Тех. данные: русские | встроены (полные)(SRT, SSA)
Перевод: Suzume, Xander, Lina, Leoneed

Озвучивание: любительский одноголосый (жен.) от Persona99

MediaInfo: - показать
Общее
Уникальный идентификатор                 : 183262680085708234664380831177506621604 (0x89DF1BBB4A4DAF118E2EE118244D08A4)
Полное имя                               : R:\[AnimeReactor.RU] Kyo Kara Maoh (TV-1)[1-39 of 39][DVDRip]\Kyo Kara Maoh! [01 of 39][848x480 AVC mp3 AC3][GetSmart & AnimeReactor.RU].mkv
Формат                                   : Matroska
Версия формата                           : Version 2
Размер файла                             : 332 Мбайт
Продолжительность                        : 25 м.
Общий поток                              : 1853 Кбит/сек
Дата кодирования                         : UTC 2013-02-15 19:41:08
Программа кодирования                    : mkvmerge v5.8.0 ('No Sleep / Pillow' built on Sep  2 2012 15:37:04
Библиотека кодирования                   : libebml v1.2.3 + libmatroska v1.3.0

Видео
Идентификатор                            : 1
Формат                                   : AVC
Формат/Информация                        : Advanced Video Codec
Профиль формата                          : High@L4.1
Параметр CABAC формата                   : Да
Параметр ReFrames формата                : 10 кадров
Режим смешивания                         : Header stripping
Идентификатор кодека                     : V_MPEG4/ISO/AVC
Продолжительность                        : 25 м.
Битрейт                                  : 1500 Кбит/сек
Ширина                                   : 848 пикселей
Высота                                   : 480 пикселей
Соотношение сторон                       : 16:9
Режим частоты кадров                     : Постоянный
Частота кадров                           : 23,976 кадра/сек
Цветовое пространство                    : YUV
Субдискретизация насыщенности            : 4:2:0
Битовая глубина                          : 8 бит
Тип развёртки                            : Прогрессивная
Бит/(Пиксели*Кадры)                      : 0.154
Размер потока                            : 262 Мбайт (79%)
Заголовок                                : SilentSpider-raws
Библиотека кодирования                   : x264 core 129 r2230 1cffe9f
Настройки программы                      : cabac=1 / ref=10 / deblock=1:1:1 / analyse=0x3:0x113 / me=umh / subme=8 / psy=1 / psy_rd=0.40:0.00 / mixed_ref=1 / me_range=16 / chroma_me=1 / trellis=1 / 8x8dct=1 / cqm=0 / deadzone=21,11 / fast_pskip=1 / chroma_qp_offset=-2 / threads=6 / lookahead_threads=1 / sliced_threads=0 / nr=0 / decimate=1 / interlaced=0 / bluray_compat=0 / constrained_intra=0 / bframes=5 / b_pyramid=2 / b_adapt=2 / b_bias=0 / direct=3 / weightb=1 / open_gop=0 / weightp=2 / keyint=240 / keyint_min=23 / scenecut=40 / intra_refresh=0 / rc_lookahead=50 / rc=2pass / mbtree=1 / bitrate=1500 / ratetol=1.0 / qcomp=0.60 / qpmin=10 / qpmax=51 / qpstep=4 / cplxblur=20.0 / qblur=0.5 / ip_ratio=1.40 / aq=1:0.60
Default                                  : Да
Forced                                   : Нет

Аудио #1
Идентификатор                            : 2
Формат                                   : MPEG Audio
Версия формата                           : Version 1
Профиль формата                          : Layer 3
Режим                                    : Joint stereo
Режим смешивания                         : Header stripping
Идентификатор кодека                     : A_MPEG/L3
Идентификатор кодека/Подсказка           : MP3
Продолжительность                        : 25 м.
Вид битрейта                             : Постоянный
Битрейт                                  : 160 Кбит/сек
Каналы                                   : 2 канала
Частота                                  : 48,0 КГц
Метод сжатия                             : С потерями
Размер потока                            : 28,7 Мбайт (9%)
Заголовок                                : Persona99
Язык                                     : Russian
Default                                  : Да
Forced                                   : Нет

Аудио #2
Идентификатор                            : 3
Формат                                   : AC-3
Формат/Информация                        : Audio Coding 3
Расширение режима                        : CM (complete main)
Параметр Endianness формата              : Big
Режим смешивания                         : Header stripping
Идентификатор кодека                     : A_AC3
Продолжительность                        : 25 м.
Вид битрейта                             : Постоянный
Битрейт                                  : 192 Кбит/сек
Каналы                                   : 2 канала
Расположение каналов                     : Front: L R
Частота                                  : 48,0 КГц
Битовая глубина                          : 16 бит
Метод сжатия                             : С потерями
Размер потока                            : 34,4 Мбайт (10%)
Заголовок                                : Original
Язык                                     : Japanese
Default                                  : Нет
Forced                                   : Нет

Текст #1
Идентификатор                            : 4
Формат                                   : ASS
Идентификатор кодека                     : S_TEXT/ASS
Идентификатор кодека/Информация          : Advanced Sub Station Alpha
Метод сжатия                             : Без потерь
Заголовок                                : SSA
Язык                                     : Russian
Default                                  : Нет
Forced                                   : Нет

Текст #2
Идентификатор                            : 5
Формат                                   : UTF-8
Идентификатор кодека                     : S_TEXT/UTF8
Идентификатор кодека/Информация          : UTF-8 Plain Text
Заголовок                                : SRT
Язык                                     : Russian
Default                                  : Нет
Forced                                   : Нет


Скриншоты: - показать


Дядя Шарик
Релиз от
источник
ARRU & Get Smart & REBUILD ARRU
А вы ничего не забыли?
наверх

Последние поступления