ARRU





Toaru Majutsu no Index II (TV-2)
Индекс Волшебства (второй сезон)(2010)[01-24 из 24][BD-Rip][HWP]   Bookmark


Скачать вход / регистрация
Тема на форуме Обсудить аниме (комментариев: 444)
Обсуждение раздачи (комментариев: 68)
Смотреть онлайн
ОписаниеToaru Majutsu no Index II (TV-2) / Индекс Волшебства (второй сезон)(2010)[01-24 из 24][BD-Rip][HWP]
Оригинальное название: Toaru Majutsu no Index II
Русское название: Индекс Волшебства [ТВ-2]
Страна: Япония
Период трансляции: c 08.10.2010 по 01.04.2011
Жанр: приключения, фэнтези
Количество эпизодов ТВ: 24
Продолжительность: 25 мин
Режиссёр: Нисикиори Хироси
Автор оригинала: Камати Кадзума
Студия:


Описание:
  В альтернативном мире науки и магии где-то в Южной Японии все так же стоит чудесный город, где живет Тома Камидзё, который спас мир, но потерял память. Впрочем, парень мог забыть о своих подвигах или о школьном задании на лето, но никак не о шумном создании в белом, которое поселилось в его скромной квартирке. Разумеется, Индекс снова втягивает Тому в историю, где фигурируют запретные книги, английские рыцари, римские католики и японские заговорщики, а мы встречаемся со старыми знакомыми из предыдущих сезонов.
  А пока Тома проклинает свое вечное невезение, в предместьях Академгорода христианские маги схватываются с местными экуменистами, Мисаки и Акселератор не могут разобраться в собственных чувствах, а тайно прибывшая из Англии архиепископ Лаура мечтает сходить в японскую баню.
  Грядут новые битвы, зашевелились местные тайные союзы эсперов, да и ученые Академии, явно не отягощенные моралью, предвкушают новые эксперименты. И только свежий взгляд на мир сериала помогает понять, что приключения героев – лишь часть большой картины «нового творения», в которой кое-кто из создателей Академии решил поколебать сами основы мироздания!
© Hollow

Названия эпизодов:
01. August 31st (The Last Day)
02. The Book of the Law
03. The Amakusa Church
04. Sheol Fear
05. Lotus Wand
06. Remnant
07. Move Point
08. Grand Champion Star Festival
09. Route Disturb
10. Shorthand Original (Shorthand)
11. Precious Love-Letter (Stab Sword)
12. Astronomical Observatory (Belvedere)
13.Disciple`s Cross (Croce di Pietro)
14. Capital of Water
15. The Queen`s Fleet
16. Appointed Time of the Rosary
17. Penalty Game
18. Serial Number
19. Kihara Amata (Researcher)
20. Hunting Dog Unit (Hound Dog)
21. Teaching Device (Testament)
22. Divine Punishment Spell
23. Before the Outbreak of War
24. Armed Group (Skill Out)


Источник рипа: BD-Rip [Winter]
Автор рипа\энкод: Renmei Rei
Тип видео: Без хардсаба
Контейнер: AVI
Видео: XviD (Build 65) | 720 x 404 пикселей | 23,976 кадра/сек | ~1500 Кбит/сек ;

Внимание: Рип был полностью пересобран. С японскими дорожками теперь все в порядке.

Аудио:
RUS: AC-3 | 48.0 КГц | стерео | 256 Кбит/сек;
JAP:  AC-3 | 48.0 КГц | стерео | 256 Кбит/сек

Озвучивание: любительский одноголосый (жен.) от Persona99
Субтитры: - показать
Тех. данные: русские | отдельно (полные)(SRT, SSA)
Переводчик: Nesitach
Редактор/Тайм-код/Оформление: Stan WarHammer
Перевод песен: StormHeart [YakuSub Studio]


MediaInfo: - показать
Общее
Полное имя                               : D:\Video\HWP\[AnimeReactor.RU] Toaru Majutsu no Index II (TV-2)[1-24 of 24][BDRip][HWP]\Toaru Majutsu no Index II [01 of 24][BDrip][720x404 XviD AC3x2][GetSmart & AnimeReactor.RU].avi
Формат                                   : AVI
Формат/Информация                        : Audio Video Interleave
Размер файла                             : 343 Мбайт
Продолжительность                        : 23 м.
Общий поток                              : 2026 Кбит/сек
Программа кодирования                    : VirtualDubModRus 1.5.10.2 (build 2542/release)
Библиотека кодирования                   : VirtualDubMod build 2542/release

Видео
Идентификатор                            : 0
Формат                                   : MPEG-4 Visual
Профиль формата                          : Advanced Simple@L5
Параметр BVOP формата                    : 2
Параметр QPel формата                    : Нет
Параметр GMC формата                     : Без точки перехода
Параметр матрицы формата                 : Default (MPEG)
Идентификатор кодека                     : XVID
Идентификатор кодека/Подсказка           : XviD
Продолжительность                        : 23 м.
Битрейт                                  : 1500 Кбит/сек
Ширина                                   : 720 пикселей
Высота                                   : 404 пикселя
Соотношение сторон                       : 16:9
Частота кадров                           : 23,976 кадра/сек
Цветовое пространство                    : YUV
Субдискретизация насыщенности            : 4:2:0
Битовая глубина                          : 8 бит
Тип развёртки                            : Прогрессивная
Метод сжатия                             : С потерями
Бит/(Пиксели*Кадры)                      : 0.215
Размер потока                            : 254 Мбайт (74%)
Библиотека кодирования                   : XviD 65

Аудио #1
Идентификатор                            : 1
Формат                                   : AC-3
Формат/Информация                        : Audio Coding 3
Расширение режима                        : CM (complete main)
Параметр Endianness формата              : Big
Идентификатор кодека                     : 2000
Продолжительность                        : 23 м.
Вид битрейта                             : Постоянный
Битрейт                                  : 256 Кбит/сек
Каналы                                   : 2 канала
Расположение каналов                     : Front: L R
Частота                                  : 48,0 КГц
Битовая глубина                          : 16 бит
Метод сжатия                             : С потерями
Размер потока                            : 43,4 Мбайт (13%)
Выравнивание                             : Разделение по промежуткам
Продолжительность промежутка             : 42  мс. (1,00 видеокадр)
Время предзагрузки промежутка            : 500  мс.
Заголовок                                : Russian [Persona99]

Аудио #2
Идентификатор                            : 2
Формат                                   : AC-3
Формат/Информация                        : Audio Coding 3
Расширение режима                        : CM (complete main)
Параметр Endianness формата              : Big
Идентификатор кодека                     : 2000
Продолжительность                        : 23 м.
Вид битрейта                             : Постоянный
Битрейт                                  : 256 Кбит/сек
Каналы                                   : 2 канала
Расположение каналов                     : Front: L R
Частота                                  : 48,0 КГц
Битовая глубина                          : 16 бит
Метод сжатия                             : С потерями
Размер потока                            : 43,4 Мбайт (13%)
Выравнивание                             : Разделение по промежуткам
Продолжительность промежутка             : 42  мс. (1,00 видеокадр)
Время предзагрузки промежутка            : 500  мс.
Заголовок                                : Japanese [Original]




Скриншоты: - показать


Дядя Шарик
Релиз от
источник
ARRU & Get Smart & RenmeiRei & REBUILD ARRU
А вы ничего не забыли?
наверх

Последние поступления