ARRU





Идолмастер Ксеноглоссия, Idolmaster Xenoglossia
Idolm@ster Xenoglossia, アイドルマスター [01 - 26 из 26][DVDRip][HWP]   Bookmark


Скачать вход / регистрация
Тема на форуме Обсудить аниме (комментариев: 8)
Обсуждение раздачи (комментариев: 11)
ОписаниеIdolmaster Xenoglossia / Идолмастер Ксеноглоссия (2007)[01 - 26 из 26][DVDRip][HWP]
Оригинальное название: アイドルマスター XENOGLOSSIA
Английское название: Idolmaster Xenoglossia (Idolm@ster Xenoglossia)
Русское название: Идолмастер Ксеноглоссия

Страна: Япония
Жанр: комедия, драма, фантастика, меха
Год выхода: 2007
Колличество серий: 26 серий
Продолжительность: 24 мин
Студия:  SUNRISE
Режиссёр: Нагай Тацуюки
Автор оригинала: Ятатэ Хадзимэ

Описание:
Собираясь на конкурс молодых певческих дарований, Амами Харука, в быту самая что ни на есть обычная японская школьница из не менее обычной японской глубинки и предположить не могла, чем для неё всё обернётся. Если первая новость, неожиданная на столько же, насколько и приятная, ждала её в почтовом ящике возле дома: "Амами Харука-сама, вы выиграли и приглашаетесь в Токио для участия в следующем этапе", то со второй уже вышло не так хорошо. Мало того, что до Токио ещё надо как-то доехать (а легко ли ехать в большой город, если ты и за забор-то родного дома выглядываешь с опаской?), так ведь и долгожданный приз оказывается совсем не тем, чем должен быть. Видите ли, организаторы конкурса - вовсе не телевизионщики, ищущие молодые таланты, а самая настоящая тайная организация, с помощью конкурса отбирающая пилотов для боевых роботов, которыми (ВНЕЗАПНО) могут стать лишь кавайные девочки.
Амами же оказывается оказывается "за баранкой", даже не успев распаковать чемоданы. Цели обозначены - спасение Земли от метеоритов (а вы не знали? Луна-то взорвалась, а метеориты остались!), борьба с "конкурентами", а заодно выяснение отношений внутри дружного "девичьего" коллектива пилотов. Что дальше?

Источник рипа: DVD-Rip
Автор рипа\энкод: RACER RS
Тип видео: Без хардсаба
Контейнер: AVI
Видео: XviD 64 | 720 x 404 (16:9) | 23,976 fps | 1300 kbps ;

Аудио:
RUS: AC3 | 48000Hz | 192 Kbps | 2ch
JAP: AC3 | 48000Hz | 256 Kbps | 2ch
Субтитры: Ru - soft [ASS]и[SRT]

Озвучивание: Eladiel
Перевод:  chestah, A.B.K., Окорок и Полька
Работа со звуком Dark Man

MediaInfo: - показать
Format                                   : AVI
Format/Info                              : Audio Video Interleave
File size                                : 299 MiB
Duration                                 : 23mn 41s
Overall bit rate                         : 1 762 Kbps
Writing application                      : VirtualDubMod 1.5.10.2 (build 2540/release)
Writing library                          : VirtualDubMod build 2540/release

Video
ID                                       : 0
Format                                   : MPEG-4 Visual
Format profile                           : Advanced Simple@L5
Format settings, BVOP                    : 2
Format settings, QPel                    : No
Format settings, GMC                     : No warppoints
Format settings, Matrix                  : Default (H.263)
Codec ID                                 : XVID
Codec ID/Hint                            : XviD
Duration                                 : 23mn 41s
Bit rate                                 : 1 300 Kbps
Width                                    : 720 pixels
Height                                   : 404 pixels
Display aspect ratio                     : 16:9
Frame rate                               : 23.976 fps
Color space                              : YUV
Chroma subsampling                       : 4:2:0
Bit depth                                : 8 bits
Scan type                                : Progressive
Compression mode                         : Lossy
Bits/(Pixel*Frame)                       : 0.186
Stream size                              : 220 MiB (74%)
Writing library                          : XviD 64

Audio #1
ID                                       : 1
Format                                   : AC-3
Format/Info                              : Audio Coding 3
Mode extension                           : CM (complete main)
Format settings, Endianness              : Big
Codec ID                                 : 2000
Duration                                 : 23mn 41s
Bit rate mode                            : Constant
Bit rate                                 : 192 Kbps
Channel(s)                               : 2 channels
Channel positions                        : Front: L R
Sampling rate                            : 48.0 KHz
Bit depth                                : 16 bits
Compression mode                         : Lossy
Stream size                              : 32.5 MiB (11%)
Alignment                                : Split accross interleaves
Interleave, duration                     : 42 ms (1.00 video frame)
Interleave, preload duration             : 500 ms
Title                                    : Eladiel [Russian]

Audio #2
ID                                       : 2
Format                                   : AC-3
Format/Info                              : Audio Coding 3
Mode extension                           : CM (complete main)
Format settings, Endianness              : Big
Codec ID                                 : 2000
Duration                                 : 23mn 41s
Bit rate mode                            : Constant
Bit rate                                 : 256 Kbps
Channel(s)                               : 2 channels
Channel positions                        : Front: L R
Sampling rate                            : 48.0 KHz
Bit depth                                : 16 bits
Compression mode                         : Lossy
Stream size                              : 43.4 MiB (15%)
Alignment                                : Split accross interleaves
Interleave, duration                     : 42 ms (1.00 video frame)
Interleave, preload duration             : 500 ms
Title                                    : Original [Japanese]





Скриншоты: - показать



Дядя Шарик
Релиз от
источник
ARRU & Animedia & REBUILD ARRU   &   RACER RS
А вы ничего не забыли?
наверх

Последние поступления