ARRU





Dragon Crisis!
Драконий переполох [01-12 из 12] [BDRip 1080p]   Bookmark


Скачать вход / регистрация
Тема на форуме Обсудить аниме (комментариев: 215)
Обсуждение раздачи (комментариев: 42)
ОписаниеDragon Crisis! / Драконий переполох [01-12 из 12] [BDRip 1080p]
Оригинальное название: ドラゴンクライシス!
Английское название: Dragon Crisis!
Русское название: Драконий Переполох

Страна: Япония
Жанр: приключения, комедия, мистика
Год выхода: 2011
Колличество серий: 12
Продолжительность: 24 мин
Студия: DEEN
Режиссёр: Татибана Хидэки
Автор оригинала: Кидзаки Кая

Описание:
Вся семья 15-летнего Рюдзи Кисараги – охотники за сокровищами. Неудивительно, что родня героя в вечных экспедициях, и парень спокойно живет один, не обращая, кстати, внимания на чувства скромной одноклассницы Мисаки Это. Спокойная жизнь кончилась с приездом из Америки старшей кузины по имени Эрико Нанао, безбашенной даже по семейным меркам. Посреди летних каникул Эрико, девушка с выдающимся интеллектом и другими достоинствами, подбила Рюдзи увести чемодан с ценным грузом из-под носа у банды Клыков – людей весьма серьезных. В ходе погони и перестрелки чемодан открылся и явил миру… очаровательное юное создание!

Сбежав от бандитов, молодые авантюристы выяснили три вещи – во-первых, им досталась девочка-дракон, внешне похожая на восьмилетнего ребенка, а разумом – на младенца. Во-вторых, она откуда-то знает и очень любит Рюдзи – собственно, его имя и составляет весь ее немудреный словарный запас. В-третьих, приютив нежданную гостью (названную ими Розой), Рюдзи и Эрико обрекли себя на тесные контакты с Драконьим народом, оборотнями, мафиози и собратьями по опасному увлечению. Одна надежда, что Роза, которая (как и все драконы) быстро учится, сможет внести ясность в ситуацию. Хотя какая тут ясность – живыми бы остаться!

Названия эпизодов - показать

01. The Abducted Girl
02. The Black Assault
03. Contract of Determination
04. Beauty on the Beach
05. Unpleasant Awakening  
06. Attack of the Wolf
07. The Truth about Wolves
08. Risked Test
09. Mirror of Truth
10. Adult's Ritual
11. Dragon Crisis
12. Engage


Источник рипа: BD
Автор рипа\энкод: Yousei-raws
Тип видео: Без хардсаба
Контейнер: MKV
Видео: x264 High@L4.1 | 1920 x 1080 (16:9) | 23,976 fps | 9000 - 10000 kbps ;

Аудио:
RUS: AC3 | 48000Hz | 192 Kbps | 2ch  Persona99
RUS: mp3 | 48000Hz | 192 Kbps | 2ch  Vulpes Vulpes
JAP: FLAC | 48000Hz | 600 Kbps | 2ch
Субтитры: Ru - soft [ASS]

Перевод:
Драконолог-лингвист, он же менестрель: Nachtwandler
Драконолог-литератор: DeK
Драконолог-иллюстратор: nismo

MediaInfo: - показать
Format                                   : Matroska
Format version                           : Version 2
File size                                : 1.83 GiB
Duration                                 : 23mn 42s
Overall bit rate mode                    : Variable
Overall bit rate                         : 11.1 Mbps
Encoded date                             : UTC 2013-02-01 18:07:51
Writing application                      : mkvmerge v5.3.0 ('I could have danced' built on Feb  9 2012 10:38:07
Writing library                          : libebml v1.2.3 + libmatroska v1.3.0

Video
ID                                       : 1
Format                                   : AVC
Format/Info                              : Advanced Video Codec
Format profile                           : High@L4.1
Format settings, CABAC                   : Yes
Format settings, ReFrames                : 4 frames
Muxing mode                              : Header stripping
Codec ID                                 : V_MPEG4/ISO/AVC
Duration                                 : 23mn 42s
Nominal bit rate                         : 9 995 Kbps
Width                                    : 1 920 pixels
Height                                   : 1 080 pixels
Display aspect ratio                     : 16:9
Frame rate mode                          : Constant
Frame rate                               : 23.976 fps
Color space                              : YUV
Chroma subsampling                       : 4:2:0
Bit depth                                : 8 bits
Scan type                                : Progressive
Bits/(Pixel*Frame)                       : 0.201
Title                                    : BDrip by Yousei
Writing library                          : x264 core 114 r1913 5fd3dce
Encoding settings                        : cabac=1 / ref=4 / deblock=1:-2:-2 / analyse=0x3:0x133 / me=umh / subme=9 / psy=1 / psy_rd=0.70:0.00 / mixed_ref=1 / me_range=24 / chroma_me=1 / trellis=2 / 8x8dct=1 / cqm=0 / deadzone=21,11 / fast_pskip=1 / chroma_qp_offset=-2 / threads=12 / sliced_threads=0 / nr=0 / decimate=0 / interlaced=0 / constrained_intra=0 / bframes=8 / b_pyramid=2 / b_adapt=2 / b_bias=0 / direct=3 / weightb=1 / open_gop=0 / weightp=2 / keyint=250 / keyint_min=23 / scenecut=40 / intra_refresh=0 / rc_lookahead=40 / rc=2pass / mbtree=0 / bitrate=9995 / ratetol=1.0 / qcomp=0.60 / qpmin=7 / qpmax=22 / qpstep=4 / cplxblur=20.0 / qblur=0.5 / vbv_maxrate=40000 / vbv_bufsize=62500 / nal_hrd=none / ip_ratio=1.40 / pb_ratio=1.30 / aq=1:0.90
Default                                  : Yes
Forced                                   : No

Audio #1
ID                                       : 2
Format                                   : AC-3
Format/Info                              : Audio Coding 3
Mode extension                           : CM (complete main)
Format settings, Endianness              : Big
Muxing mode                              : Header stripping
Codec ID                                 : A_AC3
Duration                                 : 23mn 42s
Bit rate mode                            : Constant
Bit rate                                 : 192 Kbps
Channel(s)                               : 2 channels
Channel positions                        : Front: L R
Sampling rate                            : 48.0 KHz
Bit depth                                : 16 bits
Compression mode                         : Lossy
Stream size                              : 32.6 MiB (2%)
Title                                    : Persona99
Language                                 : Russian
Default                                  : Yes
Forced                                   : No

Audio #2
ID                                       : 3
Format                                   : MPEG Audio
Format version                           : Version 1
Format profile                           : Layer 3
Muxing mode                              : Header stripping
Codec ID                                 : A_MPEG/L3
Codec ID/Hint                            : MP3
Duration                                 : 23mn 42s
Bit rate mode                            : Constant
Bit rate                                 : 192 Kbps
Channel(s)                               : 2 channels
Sampling rate                            : 44.1 KHz
Compression mode                         : Lossy
Stream size                              : 32.6 MiB (2%)
Title                                    : Vulpes Vulpes
Language                                 : Russian
Default                                  : No
Forced                                   : No

Audio #3
ID                                       : 4
Format                                   : FLAC
Format/Info                              : Free Lossless Audio Codec
Codec ID                                 : A_FLAC
Duration                                 : 23mn 42s
Bit rate mode                            : Variable
Channel(s)                               : 2 channels
Sampling rate                            : 48.0 KHz
Bit depth                                : 16 bits
Title                                    : LPCM -> flac
Writing library                          : libFLAC 1.2.1 (UTC 2007-09-17)
Language                                 : Japanese
Default                                  : No
Forced                                   : No

Text
ID                                       : 5
Format                                   : ASS
Codec ID                                 : S_TEXT/ASS
Codec ID/Info                            : Advanced Sub Station Alpha
Compression mode                         : Lossless
Language                                 : Russian
Default                                  : No
Forced                                   : No

Скриншоты: - показать





Дядя Шарик
Релиз от
источник
ARRU & Get Smart & Vulpes Vulpes & REBUILD ARRU
А вы ничего не забыли?
наверх

Последние поступления