ARRU





The Cub Tiger From Kwangtung
Маленький тигр из Квантунга (фильм)(1971)[DVDRip][HWP]   Bookmark


Скачать вход / регистрация
Тема на форуме Обсудить фильм (комментариев: 1)
Обсуждение раздачи (комментариев: 0)
ОписаниеThe Cub Tiger From Kwangtung / Маленький тигр из Квантунга (фильм)(1971)[DVDRip][HWP]
Оригинальное название: 廣東小老虎
Английское название: The Cub Tiger From Kwangtung
Русское название: Маленький тигр из квантунга
Страна:Гонконг
Год выпуска: 1971
Жанр: боевик, боевые искусства
Продолжительность: 1 час 25 минут
Студия: Soon Lee Films Co. , Union Film Laboratory
Режиссёр: Вэй Хайфэн
В главных ролях: Джеки Чан, Чень Хунле, Шу Пэйпэй, Тянь Фэн
Сценарий: Лю Сюнь
Композитор: Чэнь Сюньци

Описание:
Первый фильм, в котором Джеки Чан играет главную роль. Через несколько лет после выхода картины, права на фильм выкупил Ло Вэй. Из полученного киноматериала он вырезал некоторые сцены, снял несколько новых с новыми персонажами и смонтажировал фильм Мастер со сломанными пальцами.

Сяо Ху (Джеки Чан) - молодой парень, живущий с приёмным отцом (Тянь Фэн) и сестрой (Шу Пэйпэй). Он тайно изучал боевые искусства, поскольку отец запретил ему. Однажды он вступает в драку с бандой вымогателей в закусочной, в которой он работает со своим дядей. Сяо Ху избивает бандитов и те жалуются своему боссу (Чень Хунле). После ряда неудачных стычек, босс сам решает разобраться с парнем. В итоге главарь банды избивает Сяо Ху и случайно наносит удар его отцу, после которого второму становится плохо. После этого случая семья парня переезжает в другое место и юноша устраивается на работу на пристань. Его отцу плохо и он не встаёт с постели. В отсутствие Сяо Ху бандиты поджигают дом, в котором находился больной отец, но его спасает карманник по имени Лягушонок (Хань Гуочай), с которым главный герой познакомился перед стычкой в закусочной. Сестра Сяо, поняв что отец мёртв, прибегает на пристань и рассказывает о поджоге брату. Почти сразу на пристань приходят Лягушонок и больной отец. В это время на пристань прибывают бандиты и решают присвоить её себе. Увидев Сяо, один из них берёт в плен Лягушонка. С разрешения отца главный герой вступает в драку, пытается спасти друга-карманника, но попытка заканчивается неудачей, и Лягушонок погибает. После этого, разгневанный парень избивает членов банды и убивает босса.

Источник рипа: DVD-5
Автор рипа\энкод: Renmei Rei
Тип видео: присутствует хардсаб
Контейнер: AVI
Видео: XviD (Build 65) | 720 x 304 пикселей | 23,976 кадра/сек | ~1500 Кбит/сек ;

Аудио:
RUS: AC-3 | 48.0 КГц | стерео | 192 Кбит/сек;
CHI:  AC-3 | 48.0 КГц | стерео | 192 Кбит/сек

Субтитры: нет
Перевод: jgorrr1
Озвучивание: любительский одноголосый (муж.) от jgorrr1

MediaInfo: - показать
Общее
Полное имя                               : D:\Video\HWP\[AnimeReactor.RU] The Cub Tiger From Kwangtung (movie)[DVDRip][HWP]\The Cub Tiger From Kwangtung [DVDRip][720x304 XviD AC3x2][AnimeReactor.RU].avi
Формат                                   : AVI
Формат/Информация                        : Audio Video Interleave
Размер файла                             : 1,13 Гбайт
Продолжительность                        : 1 ч. 25 м.
Общий поток                              : 1898 Кбит/сек
Программа кодирования                    : VirtualDubModRus 1.5.10.2 (build 2542/release)
Библиотека кодирования                   : VirtualDubMod build 2542/release

Видео
Идентификатор                            : 0
Формат                                   : MPEG-4 Visual
Профиль формата                          : Advanced Simple@L5
Параметр BVOP формата                    : 2
Параметр QPel формата                    : Нет
Параметр GMC формата                     : Без точки перехода
Параметр матрицы формата                 : Default (MPEG)
Идентификатор кодека                     : XVID
Идентификатор кодека/Подсказка           : XviD
Продолжительность                        : 1 ч. 25 м.
Битрейт                                  : 1500 Кбит/сек
Ширина                                   : 720 пикселей
Высота                                   : 304 пикселя
Соотношение сторон                       : 2,35:1
Частота кадров                           : 23,976 кадра/сек
Цветовое пространство                    : YUV
Субдискретизация насыщенности            : 4:2:0
Битовая глубина                          : 8 бит
Тип развёртки                            : Прогрессивная
Метод сжатия                             : С потерями
Бит/(Пиксели*Кадры)                      : 0.286
Размер потока                            : 915 Мбайт (79%)
Библиотека кодирования                   : XviD 65

Аудио #1
Идентификатор                            : 1
Формат                                   : AC-3
Формат/Информация                        : Audio Coding 3
Расширение режима                        : CM (complete main)
Параметр Endianness формата              : Big
Идентификатор кодека                     : 2000
Продолжительность                        : 1 ч. 25 м.
Вид битрейта                             : Постоянный
Битрейт                                  : 192 Кбит/сек
Каналы                                   : 2 канала
Расположение каналов                     : Front: L R
Частота                                  : 48,0 КГц
Битовая глубина                          : 16 бит
Метод сжатия                             : С потерями
Размер потока                            : 117 Мбайт (10%)
Выравнивание                             : Разделение по промежуткам
Продолжительность промежутка             : 42  мс. (1,00 видеокадр)
Время предзагрузки промежутка            : 500  мс.
Заголовок                                : Russian [jgorrr1]

Аудио #2
Идентификатор                            : 2
Формат                                   : AC-3
Формат/Информация                        : Audio Coding 3
Расширение режима                        : CM (complete main)
Параметр Endianness формата              : Big
Идентификатор кодека                     : 2000
Продолжительность                        : 1 ч. 25 м.
Вид битрейта                             : Постоянный
Битрейт                                  : 192 Кбит/сек
Каналы                                   : 2 канала
Расположение каналов                     : Front: L R
Частота                                  : 48,0 КГц
Битовая глубина                          : 16 бит
Метод сжатия                             : С потерями
Задержка видео                           : 9 мс.
Размер потока                            : 117 Мбайт (10%)
Выравнивание                             : Разделение по промежуткам
Продолжительность промежутка             : 42  мс. (1,00 видеокадр)
Время предзагрузки промежутка            : 500  мс.
Заголовок                                : Chinese [Original]


Скриншоты: - показать


Дядя Шарик
Релиз от
источник
ARRU & RenmeiRei & REBUILD ARRU   &   jgorrr1
наверх

Последние поступления