ARRU





To Aru Majutsu no Index
Магический Индекс (TV-1)(2008)[01-24 из 24][BD-Rip][HWP]   Bookmark


Скачать вход / регистрация
Тема на форуме Обсудить аниме (комментариев: 444)
Обсуждение раздачи (комментариев: 16)
Смотреть онлайн
ОписаниеTo Aru Majutsu no Index / Магический Индекс (TV-1)(2008)[01-24 из 24][BD-Rip][HWP]
Оригинальное название: To Aru Majutsu no Index
Английское название: A Certain Magical Index
Русское название: Магический Индекс
Страна: Япония
Период трансляции: c 05.10.2008 по 19.03.2009
Жанр: приключения, фэнтези
Количество эпизодов ТВ: 24
Продолжительность: 25 мин
Режиссёр: Нисикиори Хироси
Автор оригинала: Камати Кадзума
Студия:

Описание:
  Действие развивается в параллельном мире, где наука сплавлена с магией, и сверхъестественные способности давно никого не удивляют. Их носители делятся на две категории: эсперов, которые в результате направленной мутации получили один, пусть и мощный дар, и магов, которые могут быть слабее, но диапазон возможностей у них куда шире. Юных эсперов со всей Японии собирают в единый образовательный центр – город под названием Академия. Там и учится главный герой сериала Тома Камидзё. Дар у парня весьма странный: его правая рука – универсальный негатор, то есть, обнуляет любое парафизическое, магическое или божественное воздействие. А раз так, считает Тома, то и немногие крупицы счастья, посылаемые судьбой, до него просто не доходят, и вся его жизнь – полная невезуха (его любимая фраза). То на телефон наступит, то не с теми парнями свяжется, то обнаружит на перилах собственного балкона на редкость милое и голодное юное создание в костюме монашки…

Юное создание, отъевшись и придя в себя, радостно сообщило, что звать ее Индекс, а родом она из Англии, где бежала из тайного церковного ордена. Братья-монахи заложили в память девушки-волшебницы содержание более 100000 запрещенных магических книг, превратив носителя в живую библиотеку с указателем, то есть, «индексом». Естественно, подобную ценность держали под строгим надзором, а ей не понравилось, свободы захотелось, понимаешь… В итоге вместе с нежданной гостьей у Томы прибавились сразу две проблемы. Первая – по следу беглянки идут могущественные маги-охотники, да и местные авторитеты уже заинтересовались. Вторая – такой массив информации без регулярной «техподдержки» вскоре просто убьет носителя. И разбирайся, Камидзё-сан, как хочешь. Вот такое невезение…
© Hollow



Названия эпизодов:
01. Academy City
02. The King of Witch Hunt (Innocentius)
03. The Church of Necessary Evil (Necessarius)
04. Perfect Memorization
05. Twelve O'Clock (Limit)
06. Imagine Breaker
07. Misawa Cram School (Science Worship)
08. Golden Training (Ars Magna)
09. Vampire Killer (Deep Blood)
10. Misaka Mikoto
11. Sisters
12. Absolute Power (Level 6)
13. One-way Traffic (Accelerator)
14. Weakest vs. Strongest
15. Angel Fall
16. Father (Kamijou Touya)
17. Archangel (The Power of God)
18. Impostor (Replica)
19. The End (Last Order)
20. Last Signal (Virus Code)
21. Unidentifiable (Counter Stop)
22. Stone Statue (Golem)
23. Kazakiri Hyouka (Friend)
24. Imaginary Number Area - Five Elements Facility


Источник рипа: BD-Rip [Winter]
Автор рипа\энкод: Renmei Rei
Тип видео: Без хардсаба
Контейнер: AVI
Видео: XviD (Build 65) | 720 x 404 пикселей | 23,976 кадра/сек | ~1500 Кбит/сек ;

Аудио:
RUS1: MP3 | 48.0 КГц | стерео | 192 Кбит/сек; • одноголосая (муж.) от Jept;
RUS2: MP3 | 48.0 КГц | стерео | 192 Кбит/сек; • одноголосая (жен.) от Persona99 (GetSmart);
JAP:  AC-3 | 48.0 КГц | стерео | 256 Кбит/сек • оригинал

Субтитры: - показать
Тех. данные: русские | отдельно (полные)(SRT, SSA)
Переводчик/Перевод песен/Оформление: Sora_P3_Heaven [Форум Shojosei]
Редактор/Тайм-код/Оформление: Stan WarHammer



MediaInfo: - показать
Общее
Полное имя                               : D:\Video\HWP\[AnimeReactor.RU] Toaru Majutsu no Index (TV-1)[1-24 of 24][BDRip][HWP]\Toaru Majutsu no Index [01 of 24][BDrip][720x404 XviD MP3x2 AC3][GetSmart & Jept & AnimeReactor.RU].avi
Формат                                   : AVI
Формат/Информация                        : Audio Video Interleave
Размер файла                             : 366 Мбайт
Продолжительность                        : 23 м.
Общий поток                              : 2159 Кбит/сек
Программа кодирования                    : VirtualDubModRus 1.5.10.2 (build 2542/release)
Библиотека кодирования                   : VirtualDubMod build 2542/release

Видео
Идентификатор                            : 0
Формат                                   : MPEG-4 Visual
Профиль формата                          : Advanced Simple@L5
Параметр BVOP формата                    : 2
Параметр QPel формата                    : Нет
Параметр GMC формата                     : Без точки перехода
Параметр матрицы формата                 : Default (H.263)
Идентификатор кодека                     : XVID
Идентификатор кодека/Подсказка           : XviD
Продолжительность                        : 23 м.
Битрейт                                  : 1500 Кбит/сек
Ширина                                   : 720 пикселей
Высота                                   : 404 пикселя
Соотношение сторон                       : 16:9
Частота кадров                           : 23,976 кадра/сек
Цветовое пространство                    : YUV
Субдискретизация насыщенности            : 4:2:0
Битовая глубина                          : 8 бит
Тип развёртки                            : Прогрессивная
Метод сжатия                             : С потерями
Бит/(Пиксели*Кадры)                      : 0.215
Размер потока                            : 254 Мбайт (69%)
Библиотека кодирования                   : XviD 65

Аудио #1
Идентификатор                            : 1
Формат                                   : MPEG Audio
Версия формата                           : Version 1
Профиль формата                          : Layer 3
Режим                                    : Joint stereo
Идентификатор кодека                     : 55
Идентификатор кодека/Подсказка           : MP3
Продолжительность                        : 23 м.
Вид битрейта                             : Постоянный
Битрейт                                  : 192 Кбит/сек
Каналы                                   : 2 канала
Частота                                  : 48,0 КГц
Метод сжатия                             : С потерями
Размер потока                            : 32,5 Мбайт (9%)
Выравнивание                             : Соединение по промежуткам
Продолжительность промежутка             : 42  мс. (1,00 видеокадр)
Время предзагрузки промежутка            : 504  мс.
Заголовок                                : Russian [Jept]

Аудио #2
Идентификатор                            : 2
Формат                                   : MPEG Audio
Версия формата                           : Version 1
Профиль формата                          : Layer 3
Режим                                    : Joint stereo
Идентификатор кодека                     : 55
Идентификатор кодека/Подсказка           : MP3
Продолжительность                        : 23 м.
Вид битрейта                             : Постоянный
Битрейт                                  : 192 Кбит/сек
Каналы                                   : 2 канала
Частота                                  : 48,0 КГц
Метод сжатия                             : С потерями
Размер потока                            : 32,5 Мбайт (9%)
Выравнивание                             : Соединение по промежуткам
Продолжительность промежутка             : 42  мс. (1,00 видеокадр)
Время предзагрузки промежутка            : 504  мс.
Заголовок                                : Russian [Persona99]

Аудио #3
Идентификатор                            : 3
Формат                                   : AC-3
Формат/Информация                        : Audio Coding 3
Расширение режима                        : CM (complete main)
Параметр Endianness формата              : Big
Идентификатор кодека                     : 2000
Продолжительность                        : 23 м.
Вид битрейта                             : Постоянный
Битрейт                                  : 256 Кбит/сек
Каналы                                   : 2 канала
Расположение каналов                     : Front: L R
Частота                                  : 48,0 КГц
Битовая глубина                          : 16 бит
Метод сжатия                             : С потерями
Размер потока                            : 43,4 Мбайт (12%)
Выравнивание                             : Разделение по промежуткам
Продолжительность промежутка             : 42  мс. (1,00 видеокадр)
Время предзагрузки промежутка            : 500  мс.
Заголовок                                : Japanese [Original]


Скриншоты: - показать


Дядя Шарик
Релиз от
источник
ARRU & Get Smart & OriGami / ОриГами & RenmeiRei & REBUILD ARRU
А вы ничего не забыли?
наверх

Последние поступления