ARRU





SOLA
Небо [01-13 of 13+2SP] [BD-Rip 1080p]   Bookmark


Скачать вход / регистрация
Тема на форуме Обсудить аниме (комментариев: 58)
Обсуждение раздачи (комментариев: 13)
ОписаниеSOLA / Небо [01-13 of 13+2SP] [BD-Rip 1080p]
Оригинальное название: 青空 / Sola
Английское название: Sola
Русское название: НЕБО

Страна: Япония
Жанр: романтика, драма, фэнтези
Год выхода: 2007
Колличество серий: 13 + 2 СПЕШЛА
Продолжительность: 25 мин
Студия: NOMAD
Режиссёр: Кобаяси Томоки / 小林智樹
Автор оригинала: Хисая Наоки / 久弥直樹

Описание:
Моримия Ёрито — обычный японский школьник (ну, по крайней мере, он так думает). Он увлекается фотографированием неба, в его комнате все стены, и даже потолок увешаны этими фотографиями. Во время одной из таких «фотосессий», ранним утром, он вдруг встречает незнакомую девушку, которая колотит по автомату, пытаясь добиться от него выдачи банки с неким странным напитком. Девушку звали Мацури. После этого была ещё встреча, а затем ему пришлось защищать её от странного мужчины с мечом... Когда он привёл её домой, выяснилось, что она вовсе не человек...

© vicza, www.world-art.ru

Названия эпизодов - показать

01. The Sky-Colored Umbrella
02. Looking up at the Blue
03. Peaceful Day
04. Two People's Wish
05. Pouring Light
06. Blood of a Sacrifice
07. Gray Sky
08. Indelible Thoughts
09. End of a Promise
10. Flickering Illusion
11. Pictures of a Reverie
12. The Boundary Between Light and Dark
13. Sky


Источник рипа: BD
Автор рипа\энкод: ANK RAWS
BD RE-тайминг звука (MaxDamage): RACER RS
Тип видео: Без хардсаба
Контейнер: MKV
Видео: x264 High10@L5.0 | 10 bit |1920 x 1080 (16:9) | 23,976 fps | 5000 kbps ;

Внимание:
Видео 10-битное! Скачайте и установите свежую версию СССР или K-Lite (x32) и смотрите видео с помощью встроенного туда плеера MPC-HC,  или установите сборку KMP с использованием LAV Filters. Как еще один вариант, можно использовать VLC.

Аудио:
RUS: AC3 | 48000Hz | 192 Kbps | 2ch  А Килька
RUS: AC3 | 48000Hz | 256 Kbps | 2ch  MaxDamage
JAP: FLAC | 48000Hz | 600 Kbps | 2ch
Субтитры: Ru - soft [ASS]

Перевод: Hollow Вилли
RE-Тайминг субтитров: RACER RS

MediaInfo: - показать
Format                                   : Matroska
Format version                           : Version 2
File size                                : 1.03 GiB
Duration                                 : 23mn 47s
Overall bit rate mode                    : Variable
Overall bit rate                         : 6 174 Kbps
Encoded date                             : UTC 2013-01-28 16:31:57
Writing application                      : mkvmerge v5.3.0 ('I could have danced' built on Feb  9 2012 10:38:07
Writing library                          : libebml v1.2.3 + libmatroska v1.3.0

Video
ID                                       : 1
Format                                   : AVC
Format/Info                              : Advanced Video Codec
Format profile                           : High 10@L5.0
Format settings, CABAC                   : Yes
Format settings, ReFrames                : 5 frames
Muxing mode                              : Header stripping
Codec ID                                 : V_MPEG4/ISO/AVC
Nominal bit rate                         : 4 000 Kbps
Width                                    : 1 920 pixels
Height                                   : 1 080 pixels
Display aspect ratio                     : 16:9
Frame rate mode                          : Variable
Original frame rate                      : 23.976 fps
Color space                              : YUV
Chroma subsampling                       : 4:2:0
Bit depth                                : 10 bits
Scan type                                : Progressive
Bits/(Pixel*Frame)                       : 0.080
Title                                    : ANK-Raws
Writing library                          : x264 core 125 r2200+666+30 20c70fc tMod [10-bit@4:2:0 X86]
Encoding settings                        : cabac=1 / ref=5 / deblock=1:-2:-2 / analyse=0x3:0x133 / me=umh / subme=9 / psy=1 / fade_compensate=0.00 / psy_rd=0.60:0.00 / mixed_ref=1 / me_range=48 / chroma_me=1 / trellis=2 / 8x8dct=1 / cqm=0 / deadzone=21,11 / fast_pskip=1 / chroma_qp_offset=-2 / threads=18 / lookahead_threads=3 / sliced_threads=0 / nr=0 / decimate=1 / interlaced=0 / bluray_compat=0 / constrained_intra=0 / fgo=0 / bframes=8 / b_pyramid=2 / b_adapt=2 / b_bias=0 / direct=3 / weightb=1 / open_gop=0 / weightp=2 / keyint=500 / keyint_min=1 / scenecut=40 / intra_refresh=0 / rc=2pass / mbtree=0 / bitrate=4000 / ratetol=1.0 / qcomp=0.60 / qpmin=8 / qpmax=32 / qpstep=4 / cplxblur=20.0 / qblur=0.5 / ip_ratio=1.40 / pb_ratio=1.30 / aq=4:1.00
Language                                 : English
Default                                  : Yes
Forced                                   : No
Color primaries                          : BT.709
Transfer characteristics                 : BT.709
Matrix coefficients                      : BT.709

Audio #1
ID                                       : 2
Format                                   : AC-3
Format/Info                              : Audio Coding 3
Mode extension                           : CM (complete main)
Format settings, Endianness              : Big
Muxing mode                              : Header stripping
Codec ID                                 : A_AC3
Duration                                 : 23mn 47s
Bit rate mode                            : Constant
Bit rate                                 : 192 Kbps
Channel(s)                               : 2 channels
Channel positions                        : Front: L R
Sampling rate                            : 48.0 KHz
Bit depth                                : 16 bits
Compression mode                         : Lossy
Stream size                              : 32.7 MiB (3%)
Title                                    : А Килька
Language                                 : Russian
Default                                  : Yes
Forced                                   : No

Audio #2
ID                                       : 3
Format                                   : AC-3
Format/Info                              : Audio Coding 3
Mode extension                           : CM (complete main)
Format settings, Endianness              : Big
Muxing mode                              : Header stripping
Codec ID                                 : A_AC3
Duration                                 : 23mn 47s
Bit rate mode                            : Constant
Bit rate                                 : 256 Kbps
Channel(s)                               : 2 channels
Channel positions                        : Front: L R
Sampling rate                            : 48.0 KHz
Bit depth                                : 16 bits
Compression mode                         : Lossy
Stream size                              : 43.5 MiB (4%)
Title                                    : MaxDamage
Language                                 : Russian
Default                                  : No
Forced                                   : No

Audio #3
ID                                       : 4
Format                                   : FLAC
Format/Info                              : Free Lossless Audio Codec
Codec ID                                 : A_FLAC
Duration                                 : 23mn 47s
Bit rate mode                            : Variable
Channel(s)                               : 2 channels
Channel positions                        : Front: L R
Sampling rate                            : 48.0 KHz
Bit depth                                : 16 bits
Title                                    : Original
Writing library                          : libFLAC 1.2.1 (UTC 2007-09-17)
Language                                 : Japanese
Default                                  : No
Forced                                   : No

Text
ID                                       : 5
Format                                   : ASS
Codec ID                                 : S_TEXT/ASS
Codec ID/Info                            : Advanced Sub Station Alpha
Compression mode                         : Lossless
Language                                 : Russian
Default                                  : No
Forced                                   : No

Menu
00:00:00.000                             : :Chapter 01
00:01:24.000                             : :Chapter 02
00:12:06.058                             : :Chapter 03
00:22:01.069                             : :Chapter 04
00:23:30.992                             : :Chapter 05

Скриншоты: - показать





Дядя Шарик
Релиз от
источник
ARRU & REBUILD ARRU   &   AnimeGroup & RACER RS
А вы ничего не забыли?
наверх

Последние поступления