ARRU





Samurai Champloo
Самурай Чамплу (TV)(2004)[01-26 из 26][BD-Rip][1080p]   Bookmark


Скачать вход / регистрация
Тема на форуме Обсудить аниме (комментариев: 91)
Обсуждение раздачи (комментариев: 14)
Смотреть онлайн
ОписаниеSamurai Champloo / Самурай Чамплу (TV)(2004)[01-26 из 26][BD-Rip][1080p]
Оригинальное название: サムライチャンプルー
Английское название: Samurai Champloo
Русское название: Самурай Чамплу

Страна: Япония
Год выпуска / период трансляции: c 20.05.2004 по 19.03.2005
Жанр:  приключения, комедия, история, сёнэн
Количество эпизодов ТВ: 26
Продолжительность: 25 мин

Студия: Manglobe Inc.
Режиссёр: Ватанабэ Синъитиро
Сценарий: Обара Синдзи


Описание:
Потеряв маму, юная Фуу год проработала в чайной, а потом решила отправиться на поиски человека, который, кажется, виновен во всех её несчастьях. У Фуу была надёжная примета: это самурай, пахнущий подсолнухами. Но как выжить в Японии эпохи Эдо, когда за каждым поворотом – бандиты, которые могут тебя похитить и продать в бордель, а единственный друг – ручная белка-летяга?

Фуу повезло: она встретила двух юных и при этом весьма сноровистых бойцов – бывшего пирата Мугэна и ронина Дзина. Заручившись их поддержкой, девушка отправилась в путь через всю страну. Не важно, что в животе всё время бурчит, и нет ни денег, ни документов – зато есть несравненные способности ввязываться в неприятности!

При первой встрече Мугэн и Дзин попытались выяснить, кто из них круче – и они готовы продолжить дуэль при первой возможности, однако главная проблема в том, что у каждого из путешественников своё прошлое и опасные враги, о которых они даже не подозревают. И неизвестно ещё, у кого этих врагов и старых грехов больше – у пирата, грабившего корабли, у ронина, убившего своего учителя, или у девушки-сиротки?

Автор знаменитого Cowboy Bebop Синъитиро Ватанабэ смешал стильный коктейль из катан и хип-хопа. В его сериале прошлое сталкивается с будущим, Восток – с Западом, герои классического кино – с реальными историческими персонажами. Но все эти забористые ингредиенты лишь оттеняют историю о трёх разных людях, которых свела и сроднила долгая дорога...

© Расселл Д. Джонс World Art


Названия эпизодов:
01. Storm and Stress ~ Temperstuous Temperaments
02. Veritable Pandemonium ~ Redeye Reprisal
03. Tacit Understanding ~ Hellhounds for Hire (Part 1)
04. Tacit Understanding ~ Hellhounds for Hire (Part 2)
05. Utter Indifference ~ Artistic Anarchy
06. Redheaded Foreigner ~ Stranger Searching
07. Surrounded on All Sides ~ A Risky Racket
08. Self-Conceit ~ The Art of Altercation
09. Evil Spirits ~ Beatbox Bandits
10. Fighting Fire With Fire ~ Lethal Lunacy
11. Fallen Angels ~ Gamblers and Gallantry
12. Learning from the Past ~ The Disorder Diaries
13. Dark Night's Road ~ Misguided Miscreants (Part 1)
14. Dark Night's Road ~ Misguided Miscreants (Part 2)
15. Bogus Booty
16. Lullabies of the Lost: Verse 1
17. Lullabies of the Lost: Verse 2
18. War of the Words
19. Unholy Union
20. Elegy Of Entrapment: Verse 1
21. Elegy Of Entrapment: Verse 2
22. Cosmic Collisions
23. Baseball Blues
24. Evanescent Encounter: Part 1
25. Evanescent Encounter: Part 2
26. Evanescent Encounter: Part 3


Качество рипа: BDRip
Тип видео: Без хардсаба
Контейнер: mkv
Видео: AVC (h264) | 8 bit | 1920x1080 pixels | ~3000Kbps | 23.976 fps

Аудио:
RUS: AC3 | 48000Hz | 384 Kbps | 6ch
JAP: AC3 | 48000Hz | 640 Kbps | 6ch

Перевод: MC Entertainment
Озвучивание: MC Entertainment
Субтитры: Arashi(правка Митька48)


MediaInfo: - показать

Общее
Формат                           : Matroska
Версия формата                   : Version 2
Размер файла                     : 712 Мбайт
Продолжительность                : 23 м.
Общий поток                      : 4262 Кбит/сек
Дата кодирования                 : UTC 2010-06-11 06:50:18
Программа кодирования            : mkvmerge v3.2.0 built on Feb 12 2010 16:46:17
Библиотека кодирования           : libebml v0.7.9 + libmatroska v0.8.1

Видео
Идентификатор                    : 1
Формат                           : AVC
Формат/Информация                : Advanced Video Codec
Профиль формата                  : High@L4.1
Параметр CABAC формата           : Да
Параметр ReFrames формата        : 4 кадра
Идентификатор кодека             : V_MPEG4/ISO/AVC
Продолжительность                : 23 м.
Битрейт                          : 3153 Кбит/сек
Ширина                           : 1920 пикселей
Высота                           : 1080 пикселей
Соотношение сторон               : 16:9
Частота кадров                   : 23,976 кадра/сек
Цветовое пространство            : YUV
Субдискретизация насыщенности    : 4:2:0
Битовая глубина                  : 8 бит
Тип развёртки                    : Прогрессивная
Бит/(Пиксели*Кадры)              : 0.063
Размер потока                    : 527 Мбайт (74%)
Библиотека кодирования           : x264 core 79 r1342_DANGEROUS
Default                          : Да
Forced                           : Нет

Аудио #1
Идентификатор                    : 2
Формат                           : AC-3
Формат/Информация                : Audio Coding 3
Расширение режима                : CM (complete main)
Идентификатор кодека             : A_AC3
Продолжительность                : 23 м.
Вид битрейта                     : Постоянный
Битрейт                          : 384 Кбит/сек
Каналы                           : 6 каналов
Расположение каналов             : Front: L C R, Side: L R, LFE
Частота                          : 48,0 КГц
Битовая глубина                  : 16 бит
Метод сжатия                     : С потерями
Задержка видео                   : 100 мс.
Размер потока                    : 64,2 Мбайт (9%)
Заголовок                        : MCEntetaiment
Язык                             : Russian
Default                          : Да
Forced                           : Нет

Аудио #2
Идентификатор                    : 3
Формат                           : AC-3
Формат/Информация                : Audio Coding 3
Расширение режима                : CM (complete main)
Идентификатор кодека             : A_AC3
Продолжительность                : 23 м.
Вид битрейта                     : Постоянный
Битрейт                          : 640 Кбит/сек
Каналы                           : 6 каналов
Расположение каналов             : Front: L C R, Side: L R, LFE
Частота                          : 48,0 КГц
Битовая глубина                  : 16 бит
Метод сжатия                     : С потерями
Размер потока                    : 107 Мбайт (15%)
Заголовок                        : Original
Язык                             : Japanese
Default                          : Нет
Forced                           : Нет

Текст
Идентификатор                    : 4
Формат                           : ASS
Идентификатор кодека             : S_TEXT/ASS
Идентификатор кодека/Информация  : Advanced Sub Station Alpha
Метод сжатия                     : Без потерь
Заголовок                        : Arashi
Язык                             : Russian
Default                          : Нет
Forced                           : Нет


Скриншоты: - показать




От себя:
Данный релиз был предоставлен товарищем Митька48, за что ему огромное спасибо.
Дядя Шарик
Релиз от
источник
ARRU & - Найдено в сети & REBUILD ARRU
А вы ничего не забыли?
наверх

Последние поступления