ARRU





Senjou no Valkyria Gallian Chronicles
Хроники Валькирии [01-26 из 26] + [Special 01-09 из 9] BD-Rip HWP   Bookmark


Скачать вход / регистрация
Тема на форуме Обсудить аниме (комментариев: 94)
Обсуждение раздачи (комментариев: 64)
Смотреть онлайн
ОписаниеSenjou no Valkyria Gallian Chronicles / Хроники Валькирии [01-26 из 26] + [Special 01-09 из 9] BD-Rip HWP
Оригинальное название: 戦場のヴァルキュリア / Senjou no Valkyria Gallian Chronicles
Английское название: Valkyria Chronicles
Русское название: Хроники Валькирии

Страна: Япония
Жанр: приключения, романтика, комедия, драма
Год выхода: 2009
Колличество серий: 26 серий + 9 спешлов
Продолжительность: 24 мин
Студия:  A1
Режиссёр: Ямамото Ясутака
Автор оригинала: Ёкотэ Митико

Описание:
В альтернативном мире, похожем на Европу середины 30-х годов XX века, в борьбе за власть сошлись две сверхдержавы – Восточно-Европейский Имперский Союз и Атлантическая Федерация. Чтобы пополнить ресурсы, Империя вторгается в небольшое королевство Галлию, где в изобилии уникальное топливо – рагнит, «камень владык». Правящий дом Галлии слаб и давно утратил реальную власть, но народ решил стоять до конца. Городок Брюль в панике эвакуируется перед надвигающимся фронтом, и тут офицеру ополчения Алисии Мелькиотт докладывают, что у реки замечен шпион…

Аниме расскажет о борьбе маленькой, но гордой Галлии против захватчиков, о боевых буднях 7-го сводного отряда, где служат главные герои, о том, что испытания открывают истинную сущность людей и помогают понять друг друга, несмотря на национальные, расовые и идеологические различия. Свою порцию удовольствия получат и любители масштабных сражений, и ценители политических интриг, и мистической «тайной истории».

© Hollow

Названия эпизодов - показать

01. Встреча на войне
02. Прощание над одуванчиками
03. Рождение Седьмого отряда
04. Краткий Выходной
05. Внезапная атака в Клодене
06. Военкор, вперёд!
07. Даркийская катастрофа
08. Истинная История
09. Лазурная Ведьма
10. Ночь снежной бури
11. Незваные гости
12. Похищенная принцесса
13. Бронепоезд Ужаса
14. Трудные решения в Фаузене
15. Прошлое поющей принцессы
16. Невысказанные чувства
17. Дары духов
18. Августовский дождь
19. Слёзы
20. Возлюбленная
21. Незримые узы
22. Замешательство
23. Форма любви
24. Решимость
25. Кого я защищаю
26. Решающая битва

Спешлы:
01. Театр Валькирии — День на пляже
02. Театр Валькирии — Летний Фестиваль в Галлии
03. Театр Валькирии — Шок! Драгоценные фотографии
04. Театр Валькирии — Великий выходной Сельверии
05. Театр Валькирии — Устрашающий джокер
06. Театр Валькирии — Тихая беседа в женской бане
07. Театр Валькирии — Новый Седьмой отряд
08. Театр Валькирии — Секрет Корделии
09. Театр Валькирии— Клянёмся навеки


Источник рипа: BD-Rip
Автор рипа\энкод: RACER RS
Тип видео: Без хардсаба
Контейнер: AVI
Видео: XviD 65 | 720 x 404 (16:9) | 23,976 fps | 1350-1600 kbps ;

Аудио:
RUS: AC3 | 48000Hz | 192 Kbps | 2ch
JAP: AC3 | 48000Hz | 256 Kbps | 2ch
Субтитры: Ru - soft [ASS]и[SRT]

Озвучивание: Persona99 & MaxDamege
Перевод: Ryou-kai & Hollow
За обложку спасбо NASTR

MediaInfo: - показать
Format                                   : AVI
Format/Info                              : Audio Video Interleave
File size                                : 344 MiB
Duration                                 : 23mn 41s
Overall bit rate                         : 2 029 Kbps
Writing application                      : VirtualDubMod 1.5.10.2 (build 2540/release)
Writing library                          : VirtualDubMod build 2540/release

Video
ID                                       : 0
Format                                   : MPEG-4 Visual
Format profile                           : Advanced Simple@L5
Format settings, BVOP                    : 2
Format settings, QPel                    : No
Format settings, GMC                     : No warppoints
Format settings, Matrix                  : Default (H.263)
Codec ID                                 : XVID
Codec ID/Hint                            : XviD
Duration                                 : 23mn 41s
Bit rate                                 : 1 566 Kbps
Width                                    : 720 pixels
Height                                   : 404 pixels
Display aspect ratio                     : 16:9
Frame rate                               : 23.976 fps
Color space                              : YUV
Chroma subsampling                       : 4:2:0
Bit depth                                : 8 bits
Scan type                                : Progressive
Compression mode                         : Lossy
Bits/(Pixel*Frame)                       : 0.225
Stream size                              : 265 MiB (77%)
Writing library                          : XviD 65

Audio #1
ID                                       : 1
Format                                   : AC-3
Format/Info                              : Audio Coding 3
Mode extension                           : CM (complete main)
Format settings, Endianness              : Big
Codec ID                                 : 2000
Duration                                 : 23mn 41s
Bit rate mode                            : Constant
Bit rate                                 : 192 Kbps
Channel(s)                               : 2 channels
Channel positions                        : Front: L R
Sampling rate                            : 48.0 KHz
Bit depth                                : 16 bits
Compression mode                         : Lossy
Stream size                              : 32.5 MiB (9%)
Alignment                                : Split accross interleaves
Interleave, duration                     : 42 ms (1.00 video frame)
Interleave, preload duration             : 500 ms
Title                                    : Persona99 & MaxDamage [Russian]

Audio #2
ID                                       : 2
Format                                   : AC-3
Format/Info                              : Audio Coding 3
Mode extension                           : CM (complete main)
Format settings, Endianness              : Big
Codec ID                                 : 2000
Duration                                 : 23mn 41s
Bit rate mode                            : Constant
Bit rate                                 : 256 Kbps
Channel(s)                               : 2 channels
Channel positions                        : Front: L R
Sampling rate                            : 48.0 KHz
Bit depth                                : 16 bits
Compression mode                         : Lossy
Stream size                              : 43.4 MiB (13%)
Alignment                                : Split accross interleaves
Interleave, duration                     : 42 ms (1.00 video frame)
Interleave, preload duration             : 500 ms
Title                                    : Original [Japanese]



Скриншоты: - показать



Дядя Шарик
Релиз от
источник
ARRU & Get Smart & REBUILD ARRU   &   RACER RS
А вы ничего не забыли?
наверх

Последние поступления