ARRU





Bokurano
Наше (2007)[1-24 из 24][DVDRip][HWP]   Bookmark


Скачать вход / регистрация
Тема на форуме Обсудить аниме (комментариев: 18)
Обсуждение раздачи (комментариев: 76)
ОписаниеBokurano / Наше (2007)[1-24 из 24][DVDRip][HWP]
Оригинальное название: ぼくらの
Английское название: Bokurano
Русское название: Наше
Страна: Япония
Год выпуска / период трансляции: 2007
Жанр: драма, фантастика, меха
Возрастное ограничение: нет
Количество эпизодов: 24 эп.
Продолжительность: 25 мин.
Режиссёр: Морита Хироюки
Сценарий: Кавасаки Хироюки
Автор оригинала: Кито Мохиро
Композитор: Номи Юдзи
Студия:

Описание:
Пятнадцать подростков из летней школы находят пещеру, а в ней странного человека, который предлагает им сыграть в компьютерную игру. Достаточно лишь зарегистрироваться – и можно управлять гигантским роботом в сражении с огромным чудовищем. Однако, вскоре становится понятно, что игра гораздо серьёзнее, что это испытание не только для участников, и что ставки глобальнее, чем можно себе вообразить.
  На первый взгляд, это очередной меха-сёнэн: боевой робот, враги с разной внешностью и способностями, подростки с их болезненными эмоциями и вечными проблемами... Но «Bokurano» посвящён не столько боям и взрослению, сколько реальному миру, вопросам жизни и смерти, царящей вокруг несправедливостью, которая редко бывает наказана, и холодному расчёту тех, кто обладает властью.
  Здесь нет снисходительной жалости или исключения из правил, и когда в дело вмешиваются политики, гигантский робот «Зеэрс» уже не воспринимается как что-то необыкновенное. Скорее, это стихийное бедствие, в которое втянуто множество невинных людей. Никто не сделает «скидку на возраст» для героев-школьников – всем вместе и каждому по отдельности им придётся заниматься спасением мира, даже если кажется, что этот мир не заслуживает спасения, и пусть даже не будет почётного пьедестала для победителя...
© Расселл Д. Джонс

Названия эпизодов:
01. Game
02. Zearth
03. Secret
04. Strong
05. Weak
06. Lust
07. Scar
08. Revision
09. Family
10. Companion
11. Life
12. Being Connected to Life
13. Earth
14. Perplexity
15. Self-destruction
16. True Identity
17. Compassion
18. Reality
19. Mother
20. Ego
21. Truth
22. Distance
23. Snowscape
24. Tale


Источник рипа: DVD-Rip [Yurasyk]
Автор рипа\энкод: Renmei Rei
Тип видео: Без хардсаба
Контейнер: AVI
Видео: XviD (Build 65) | 720 x 404 пикселей | 23,976 кадра/сек | ~1500 Кбит/сек ;

Аудио:
RUS: AC-3 | 48.0 КГц | стерео | 256 Кбит/сек;
JAP:  AC-3 | 48.0 КГц | стерео | 256 Кбит/сек

Внимание: торрент перезалил. В четвертый эпизод добавил русскую дорожку. Простите за неудобства ):

Субтитры: русские | отдельно (SRT, SSA)[Константин Тимошенков (Teisuu)]
Озвучено по переводу: Константин Тимошенков (Teisuu)
Озвучивание: Eladiel и Стефан
Работа со звуком: Gilushka

MediaInfo: - показать
Общее
Полное имя                               : D:\Video\HWP\[AnimeReactor.RU] Bokurano (TV)[1-24 of 24][DVDRip][HWP]\Bokurano [01 of 24][DVDRip][720x404 XviD AC3x2][Eladiel & Stefan & AnimeReactor.RU].avi
Формат                                   : AVI
Формат/Информация                        : Audio Video Interleave
Размер файла                             : 338 Мбайт
Продолжительность                        : 23 м.
Общий поток                              : 2026 Кбит/сек
Программа кодирования                    : VirtualDubModRus 1.5.10.2 (build 2542/release)
Библиотека кодирования                   : VirtualDubMod build 2542/release

Видео
Идентификатор                            : 0
Формат                                   : MPEG-4 Visual
Профиль формата                          : Advanced Simple@L5
Параметр BVOP формата                    : 2
Параметр QPel формата                    : Нет
Параметр GMC формата                     : Без точки перехода
Параметр матрицы формата                 : Default (H.263)
Идентификатор кодека                     : XVID
Идентификатор кодека/Подсказка           : XviD
Продолжительность                        : 23 м.
Битрейт                                  : 1500 Кбит/сек
Ширина                                   : 720 пикселей
Высота                                   : 404 пикселя
Соотношение сторон                       : 16:9
Частота кадров                           : 23,976 кадра/сек
Цветовое пространство                    : YUV
Субдискретизация насыщенности            : 4:2:0
Битовая глубина                          : 8 бит
Тип развёртки                            : Прогрессивная
Метод сжатия                             : С потерями
Бит/(Пиксели*Кадры)                      : 0.215
Размер потока                            : 250 Мбайт (74%)
Библиотека кодирования                   : XviD 65

Аудио #1
Идентификатор                            : 1
Формат                                   : AC-3
Формат/Информация                        : Audio Coding 3
Расширение режима                        : CM (complete main)
Параметр Endianness формата              : Big
Идентификатор кодека                     : 2000
Продолжительность                        : 23 м.
Вид битрейта                             : Постоянный
Битрейт                                  : 256 Кбит/сек
Каналы                                   : 2 канала
Расположение каналов                     : Front: L R
Частота                                  : 48,0 КГц
Битовая глубина                          : 16 бит
Метод сжатия                             : С потерями
Размер потока                            : 42,7 Мбайт (13%)
Выравнивание                             : Разделение по промежуткам
Продолжительность промежутка             : 42  мс. (1,00 видеокадр)
Время предзагрузки промежутка            : 500  мс.
Заголовок                                : Russian [Eladiel & Stefan]

Аудио #2
Идентификатор                            : 2
Формат                                   : AC-3
Формат/Информация                        : Audio Coding 3
Расширение режима                        : CM (complete main)
Параметр Endianness формата              : Big
Идентификатор кодека                     : 2000
Продолжительность                        : 23 м.
Вид битрейта                             : Постоянный
Битрейт                                  : 256 Кбит/сек
Каналы                                   : 2 канала
Расположение каналов                     : Front: L R
Частота                                  : 48,0 КГц
Битовая глубина                          : 16 бит
Метод сжатия                             : С потерями
Размер потока                            : 42,7 Мбайт (13%)
Выравнивание                             : Разделение по промежуткам
Продолжительность промежутка             : 42  мс. (1,00 видеокадр)
Время предзагрузки промежутка            : 500  мс.
Заголовок                                : Japanese [Original]


Скриншоты: - показать


Дядя Шарик
Релиз от
источник
ARRU & SeM & RenmeiRei & Стефан & REBUILD ARRU   &   AniLibria
А вы ничего не забыли?
наверх

Последние поступления