ARRU





Boku wa Tomodachi ga Sukunai TV-1
У меня мало друзей (первый сезон)(2011)[01-12 из 12][BDRip][HWP]   Bookmark


Скачать вход / регистрация
Тема на форуме Обсудить аниме (комментариев: 117)
Обсуждение раздачи (комментариев: 19)
ОписаниеBoku wa Tomodachi ga Sukunai TV-1 / У меня мало друзей (первый сезон)(2011)[01-12 из 12][BDRip][HWP]
Оригинальное название: Boku wa Tomodachi ga Sukunai
Английское название: I Don't Have Many Friends
Русское название: У меня мало друзей
Страна: Япония
Период трансляции: c 07.10.2011 по 23.12.2011
Жанр: комедия
Количество эпизодов: 12
Продолжительность: ~25 мин.
Режиссёр: Сайто Хисаси
Автор оригинала: Хирасака Ёми
Студия:

Описание:
  17-летний Кодака Хасэгава – полуяпонец, полуангличанин, блондин с нестандартной внешностью. Старая история – в каждой школе нормального и хозяйственного парня принимают за хулигана и обходят стороной, вот и академия Св. Хроники не стала исключением. Слоняясь в одиночестве по коридорам, Кодака заглянул в пустующий класс и не поверил глазам: одноклассница Ёдзора Микадзуки, умница, красавица, но такая же угрюмая одиночка, как он сам, весело болтала с подругой… увы, воображаемой. Слово за слово, ребята заговорили о жизни, о дружбе, и поняли, что, несмотря на всю внешнюю крутизну, хотели бы завести друзей, но не знают как. Решение оказалось на поверхности – надо создать новый клуб!
  Творить добро легко и приятно, потому герои мобилизовали все свои недюжинные способности. Очень скоро согласно канону жанра в новом «клубе соседей», разместившемся в школьной церкви, начали собираться самые разные личности, притянутые харизмой основателей. Молодая монахиня Мария, не умеющая ладить с людьми. Звезда школы Сэна Касивадзаки, вместо поклонения захотевшая обычной дружбы. Юная сумасшедшая ученая, по совместительству – фанатка сенен-ай. Весьма симпатичный парень, обожающий косплей и кроссдрессинг. Умильная сестренка главного героя… Да, да, все это уже было! Но ведь хорошие вещи можно смотреть бесконечно!
© Hollow

Названия эпизодов:
01. We Can`t Make Friends
02. There Is No God in An Electronic World
03. There Are No Flags at the Pool
04. Underclassmen Don`t Know How to Hold Back
05. Now SAGA is Locked in Full-on Battle
06. The Karaoke Box has Few Customers
07. My Cell Phone Has Few Phone Calls!
08. No School Swimsuits This Time
09. The Board Chairman`s Memories are Painful
10. No One Sleeps at Training Camp
11. You See, Girls Wearing Yukata are Extremely Cute
12. We Have Few Friends


Источник рипа: BD-Rip [Yousei-raws]
Автор рипа\энкод: Renmei Rei
Тип видео: Без хардсаба
Контейнер: AVI
Видео: XviD (Build 65) | 720 x 404 пикселей | 23,976 кадра/сек | ~1500 Кбит/сек ;

Аудио:
RUS1: AC-3 | 48.0 КГц | стерео | 256 Кбит/сек • двухголосая (муж./жен.) от DJATOM & KroshkaRu (OpenDub & Sem & Ko);
RUS2: AC-3 | 48.0 КГц | стерео | 256 Кбит/сек • одноголосая (муж.) от Kai (TF-AniGroup);
RUS3: AC-3 | 48.0 КГц | стерео | 256 Кбит/сек • одноголосая (жен.) от Persona99 (GetSmart);  
JAP:  AC-3 | 48.0 КГц | стерео | 256 Кбит/сек • оригинал


Субтитры: - показать
Тех. данные: русские | отдельно (полные/вспомогательные)(SRT, SSA)
Переводчик: Crash'n'Burn
Редактор/Оформление: Gotrics [Shift]
Переводчик: kawasaki [Advantage]
Переводчик/Редактор/Оформление: Schum [GMC]
Редактор/Перевод песен: Матадор [Ambiente]


MediaInfo: - показать
Общее
Полное имя                               : D:\Video\HWP\[AnimeReactor.RU] Boku wa Tomodachi ga Sukunai (TV)[1-12 of 12][BDRip][HWP]\Boku wa Tomodachi ga Sukunai [01 of 12][BDrip][720x404 XviD AC3x4][AnimeReactor.RU].avi
Формат                                   : AVI
Формат/Информация                        : Audio Video Interleave
Размер файла                             : 447 Мбайт
Продолжительность                        : 24 м.
Общий поток                              : 2548 Кбит/сек
Программа кодирования                    : VirtualDubModRus 1.5.10.2 (build 2542/release)
Библиотека кодирования                   : VirtualDubMod build 2542/release

Видео
Идентификатор                            : 0
Формат                                   : MPEG-4 Visual
Профиль формата                          : Advanced Simple@L5
Параметр BVOP формата                    : 2
Параметр QPel формата                    : Нет
Параметр GMC формата                     : Без точки перехода
Параметр матрицы формата                 : Default (H.263)
Идентификатор кодека                     : XVID
Идентификатор кодека/Подсказка           : XviD
Продолжительность                        : 24 м.
Битрейт                                  : 1500 Кбит/сек
Ширина                                   : 720 пикселей
Высота                                   : 404 пикселя
Соотношение сторон                       : 16:9
Частота кадров                           : 23,976 кадра/сек
Цветовое пространство                    : YUV
Субдискретизация насыщенности            : 4:2:0
Битовая глубина                          : 8 бит
Тип развёртки                            : Прогрессивная
Метод сжатия                             : С потерями
Бит/(Пиксели*Кадры)                      : 0.215
Размер потока                            : 263 Мбайт (59%)
Библиотека кодирования                   : XviD 65

Аудио #1
Идентификатор                            : 1
Формат                                   : AC-3
Формат/Информация                        : Audio Coding 3
Расширение режима                        : CM (complete main)
Параметр Endianness формата              : Big
Идентификатор кодека                     : 2000
Продолжительность                        : 24 м.
Вид битрейта                             : Постоянный
Битрейт                                  : 256 Кбит/сек
Каналы                                   : 2 канала
Расположение каналов                     : Front: L R
Частота                                  : 48,0 КГц
Битовая глубина                          : 16 бит
Метод сжатия                             : С потерями
Размер потока                            : 44,9 Мбайт (10%)
Выравнивание                             : Разделение по промежуткам
Продолжительность промежутка             : 42  мс. (1,00 видеокадр)
Время предзагрузки промежутка            : 500  мс.
Заголовок                                : Russian [DJATOM & KroshkaRu]

Аудио #2
Идентификатор                            : 2
Формат                                   : AC-3
Формат/Информация                        : Audio Coding 3
Расширение режима                        : CM (complete main)
Параметр Endianness формата              : Big
Идентификатор кодека                     : 2000
Продолжительность                        : 24 м.
Вид битрейта                             : Постоянный
Битрейт                                  : 256 Кбит/сек
Каналы                                   : 2 канала
Расположение каналов                     : Front: L R
Частота                                  : 48,0 КГц
Битовая глубина                          : 16 бит
Метод сжатия                             : С потерями
Размер потока                            : 44,9 Мбайт (10%)
Выравнивание                             : Разделение по промежуткам
Продолжительность промежутка             : 42  мс. (1,00 видеокадр)
Время предзагрузки промежутка            : 500  мс.
Заголовок                                : Russian [Kai]

Аудио #3
Идентификатор                            : 3
Формат                                   : AC-3
Формат/Информация                        : Audio Coding 3
Расширение режима                        : CM (complete main)
Параметр Endianness формата              : Big
Идентификатор кодека                     : 2000
Продолжительность                        : 24 м.
Вид битрейта                             : Постоянный
Битрейт                                  : 256 Кбит/сек
Каналы                                   : 2 канала
Расположение каналов                     : Front: L R
Частота                                  : 48,0 КГц
Битовая глубина                          : 16 бит
Метод сжатия                             : С потерями
Размер потока                            : 44,9 Мбайт (10%)
Выравнивание                             : Разделение по промежуткам
Продолжительность промежутка             : 42  мс. (1,00 видеокадр)
Время предзагрузки промежутка            : 500  мс.
Заголовок                                : Russian [Persona99]

Аудио #4
Идентификатор                            : 4
Формат                                   : AC-3
Формат/Информация                        : Audio Coding 3
Расширение режима                        : CM (complete main)
Параметр Endianness формата              : Big
Идентификатор кодека                     : 2000
Продолжительность                        : 24 м.
Вид битрейта                             : Постоянный
Битрейт                                  : 256 Кбит/сек
Каналы                                   : 2 канала
Расположение каналов                     : Front: L R
Частота                                  : 48,0 КГц
Битовая глубина                          : 16 бит
Метод сжатия                             : С потерями
Размер потока                            : 44,9 Мбайт (10%)
Выравнивание                             : Разделение по промежуткам
Продолжительность промежутка             : 42  мс. (1,00 видеокадр)
Время предзагрузки промежутка            : 500  мс.
Заголовок                                : Japanese [Original]


Скриншоты: - показать


Дядя Шарик
Релиз от
источник
ARRU & TF-AniGroup & OpenDub & Get Smart & SeM   &   Advantage & ARRU REBUILD & Renmei Rei
А вы ничего не забыли?
наверх

Последние поступления