ARRU





Tasogare Otome x Amnesia
Сумеречная Дева и Амнезия (TV)(2012)[01-13 из 13][BD-Rip][720p] fix   Bookmark


Скачать вход / регистрация
Тема на форуме Обсудить аниме (комментариев: 34)
Обсуждение раздачи (комментариев: 32)
ОписаниеTasogare Otome x Amnesia / Сумеречная Дева и Амнезия (TV)(2012)[01-13 из 13][BD-Rip][720p] fix
Оригинальное название: Tasogare Otome x Amnesia
Русское название: Сумеречная Дева и Амнезия

Страна: Япония
Период трансляции:  c 09.04.2012 по 25.06.2012
Жанр: сёнен, мистика
Количество эпизодов ТВ: 13
Продолжительность: 25 мин

Студия:SILVER LINK
Режиссёр: Онума Син
Автор оригинала: Мэйби

Описание:
В анналах академии Сэйкё множество чудес, жутковатых легенд и просто страшных историй, в большинстве которых фигурирует местный призрак Юко. Неудивительно, что в школе создан клуб изучения паранормальных явлений, где основной ударной единицей является 13-летний экстрасенс Тэйити Ниия, свободно общающийся с потусторонним миром. Здравый смысл представляет на год старшая Кириэ Каноэ, девушка из старинного рода, тоже обладающая духовной силой, а энтузиазма хоть отбавляй у ее ровесницы, секретаря клуба Момоэ Оконоги. Проблема же в том, что президента клуба по имени Юко Каноэ никто из посторонних никогда не видел!

Все верно, Юко Каноэ и есть школьный призрак, общаться с ней могут только Тэйити, на самом деле сильный экстрасенс, и Кириэ, ее внучатая племянница. Юко, то есть «сумеречная дева», попросила Тэйити использовать клуб не только для развлечения (хотя за годы одиночества развила вкус к шуткам и проказам). Дело в том, что Каноэ-старшая знает, что умерла в этой школе, но совсем не помнит обстоятельства своей смерти. Вместе с тем всем призрачным чутьем Юко понимает, что смерть была нелегкой, и с этим связана какая-то опасность для потомков. Так что теперь доблестные исследователи непознанного должны между сказками и легендами постепенно подобраться к главной тайне… Вот только бедную Момоэ жалко от души!

© Hollow World Art

Названия эпизодов: - показать

01. Ghost Maiden
02. The Maiden`s Meeting
03. Black Sunset Maiden
04. Maiden of Dawn
05. Maiden of Longing
06. Maiden of Vengeance
07. Maiden of Oblivion
08. Maiden of Recollection
09. Maiden of Hatred
10. Loss Maiden
11. Tears of Blood Maiden
12. Dusk Maiden
13. Special


Исправлена 13 серия.

Качество рипа: BDRip
Автор рипа:  Yousei-raws
Тип видео: Без хардсаба
Контейнер: mkv
Видео: AVC (x264)| 10 bit |  1280x720 pixels | 23.976 fps | ~3200 Kbps

Внимание:
Видео 10-битное! Скачайте и установите свежую версию СССР или K-Lite (x32) и смотрите видео с помощью встроенного туда плеера MPC-HC,  или установите сборку KMP с использованием LAV Filters. Как еще один вариант, можно использовать VLC.

Аудио:
RUS: AC3 | 48000Hz | 192 Kbps | 2ch
JAP: Vorbis | 48000Hz | ~256 Kbps | 2ch

Озвучивание: NASTR & VashMax2
Субтитры: Dreamers Team (серии с 01 по 11) и Sora_P3_Heaven и Stan WarHammer (серии с 12 по 13)
Перевод: Dreamers Team (серии 01-02, 06-13), Syomei & Rosetau (серии 03-05)


MediaInfo: - показать

Общее
Формат                           : Matroska
Версия формата                   : Version 4 / Version 2
Размер файла                     : 701 Мбайт
Продолжительность                : 23 м.
Режим общего битрейта            : Переменный
Общий поток                      : 4130 Кбит/сек
Название фильма                  : Ghost Hound 01
Дата кодирования                 : UTC 2010-02-22 21:41:31
Программа кодирования            : mkvmerge v5.9.0 built on Dec  9 2012 15:37:01
Библиотека кодирования           : libebml v1.3.0 + libmatroska v1.4.0

Видео
Идентификатор                    : 1
Формат                           : AVC
Формат/Информация                : Advanced Video Codec
Профиль формата                  : High 10@L4.1
Параметр CABAC формата           : Да
Параметр ReFrames формата        : 9 кадров
Режим смешивания                 : Header stripping
Идентификатор кодека             : V_MPEG4/ISO/AVC
Продолжительность                : 23 м.
Битрейт                          : 3600 Кбит/сек
Ширина                           : 1280 пикселей
Высота                           : 720 пикселей
Соотношение сторон               : 16:9
Частота кадров                   : 23,976 кадра/сек
Цветовое пространство            : YUV
Субдискретизация насыщенности    : 4:2:0
Битовая глубина                  : 10 бит
Тип развёртки                    : Прогрессивная
Бит/(Пиксели*Кадры)              : 0.163
Размер потока                    : 611 Мбайт (87%)
Библиотека кодирования           : x264 core 125 r2200 999b753
Default                          : Да
Forced                           : Нет

Аудио #1
Идентификатор                    : 2
Формат                           : AC-3
Формат/Информация                : Audio Coding 3
Расширение режима                : CM (complete main)
Режим смешивания                 : Header stripping
Идентификатор кодека             : A_AC3
Продолжительность                : 23 м.
Вид битрейта                     : Постоянный
Битрейт                          : 192 Кбит/сек
Каналы                           : 2 канала
Расположение каналов             : Front: L R
Частота                          : 48,0 КГц
Битовая глубина                  : 16 бит
Метод сжатия                     : С потерями
Размер потока                    : 32,6 Мбайт (5%)
Заголовок                        : NASTR & VashMax2
Язык                             : Russian
Default                          : Да
Forced                           : Нет

Аудио #2
Идентификатор                    : 3
Формат                           : Vorbis
Параметр Floor формата           : 1
Идентификатор кодека             : A_VORBIS
Продолжительность                : 23 м.
Вид битрейта                     : Переменный
Битрейт                          : 256 Кбит/сек
Каналы                           : 2 канала
Частота                          : 48,0 КГц
Метод сжатия                     : С потерями
Размер потока                    : 43,5 Мбайт (6%)
Заголовок                        : Original
Библиотека кодирования           : libVorbis (Schaufenugget) (20101101 (Schaufenugget))
Язык                             : Japanese
Default                          : Нет
Forced                           : Нет

Текст
Идентификатор                    : 4
Формат                           : ASS
Идентификатор кодека             : S_TEXT/ASS
Идентификатор кодека/Информация  : Advanced Sub Station Alpha
Метод сжатия                     : Без потерь
Заголовок                        : Dreamers Team & Nesitach & Stan WarHammer & Asca
Язык                             : Russian
Default                          : Нет
Forced                           : Нет


Скриншоты: - показать




От себя:
Данный релиз был предоставлен товарищем Aglenn, за что ему огромное спасибо.
Дядя Шарик
Релиз от
источник
ARRU & Moscow City Animegroup - MCA & REBUILD ARRU
А вы ничего не забыли?
наверх

Последние поступления