ARRU





To Aru Majutsu no Index
Магический Индекс (TV-1)(2008)[01-24 из 24][BD-Rip][720p]   Bookmark


Скачать вход / регистрация
Тема на форуме Обсудить аниме (комментариев: 444)
Обсуждение раздачи (комментариев: 16)
Смотреть онлайн
ОписаниеTo Aru Majutsu no Index / Магический Индекс (TV-1)(2008)[01-24 из 24][BD-Rip][720p]
Оригинальное название: To Aru Majutsu no Index
Английское название: A Certain Magical Index
Русское название: Магический Индекс

Страна: Япония
Период трансляции: c 05.10.2008 по 19.03.2009
Жанр: приключения, фэнтези
Количество эпизодов ТВ: 24
Продолжительность: 25 мин

Студия:
Режиссёр: Нисикиори Хироси
Автор оригинала: Камати Кадзума

Описание:
Камидзё Тома живёт в городе высоких технологий, где множество людей обладают сверхъестественными способностями, в зависимости от силы которых, их определяют к тому или иному уровню. Таких людей называют эсперами, в этом мире их существование является нормой. И главному герою в этом не особенно повезло… он к ним не принадлежит, т. е. он — эспер нулевого уровня. Впрочем, и к обычным людям его можно отнести лишь с большой натяжкой… из-за его тотальной неудачи))). Вот и сегодня всё не заладилось как обычно: вначале защита девушки от подозрительного типа, в результате побег, уже от «кучи» подозрительных типов, и наконец, разве так нужно благодарить своего спасителя?!

И что же принёс ему новый день? Может быть, беды Камидзё ещё и не начинались?)) Или же это долгожданное счастье повисло на его балконе?))

Одноимённая серия ранобэ (коротких романов с иллюстрациями), написанная Кадзумой Камати и иллюстрированная Киётакой Хаимурой, послужила также основой манги Тюи Когино.
To Aru Majutsu no Index, 2007 г.

Названия эпизодов:
01. Academy City
02. The King of Witch Hunt (Innocentius)
03. The Church of Necessary Evil (Necessarius)
04. Perfect Memorization
05. Twelve O'Clock (Limit)
06. Imagine Breaker
07. Misawa Cram School (Science Worship)
08. Golden Training (Ars Magna)
09. Vampire Killer (Deep Blood)
10. Misaka Mikoto
11. Sisters
12. Absolute Power (Level 6)
13. One-way Traffic (Accelerator)
14. Weakest vs. Strongest
15. Angel Fall
16. Father (Kamijou Touya)
17. Archangel (The Power of God)
18. Impostor (Replica)
19. The End (Last Order)
20. Last Signal (Virus Code)
21. Unidentifiable (Counter Stop)
22. Stone Statue (Golem)
23. Kazakiri Hyouka (Friend)
24. Imaginary Number Area - Five Elements Facility


Качество рипа: BDRip
Автор рипа:  Winter
Тип видео: Без хардсаба
Контейнер: mkv
Видео: AVC (x264)| 10 bit |  1280x720 pixels | 23.976 fps | ~3000 Kbps

Внимание:
Видео 10-битное! Скачайте и установите свежую версию СССР или K-Lite (x32) и смотрите видео с помощью встроенного туда плеера MPC-HC,  или установите сборку KMP с использованием LAV Filters. Как еще один вариант, можно использовать VLC.


Аудио:
RUS1: MP3 | 48000Hz | 192 Kbps | 2ch - Persona99
RUS2: MP3 | 48000Hz | 192 Kbps | 2ch - jept
JAP: Vorbis | 48000Hz | ~256 Kbps | 2ch

Субтитры: Sora_P3_Heaven и Stan WarHammer
Ретайминг аудио: Wano1981


MediaInfo: - показать

Общее
Формат                           : Matroska
Версия формата                   : Version 4 / Version 2
Размер файла                     : 590 Мбайт
Продолжительность                : 23 м.
Режим общего битрейта            : Переменный
Общий поток                      : 3482 Кбит/сек
Название фильма                  : Ghost Hound 01
Дата кодирования                 : UTC 2010-02-22 21:41:31
Программа кодирования            : mkvmerge v5.9.0  built on Dec  9 2012 15:37:01
Библиотека кодирования           : libebml v1.3.0 + libmatroska v1.4.0

Видео
Идентификатор                    : 1
Формат                           : AVC
Формат/Информация                : Advanced Video Codec
Профиль формата                  : High 10@L4.1
Параметр CABAC формата           : Да
Параметр ReFrames формата        : 9 кадров
Режим смешивания                 : Header stripping
Идентификатор кодека             : V_MPEG4/ISO/AVC
Продолжительность                : 23 м.
Битрейт                          : 2773 Кбит/сек
Ширина                           : 1280 пикселей
Высота                           : 720 пикселей
Соотношение сторон               : 16:9
Частота кадров                   : 23,976 кадра/сек
Цветовое пространство            : YUV
Субдискретизация насыщенности    : 4:2:0
Битовая глубина                  : 10 бит
Тип развёртки                    : Прогрессивная
Бит/(Пиксели*Кадры)              : 0.125
Размер потока                    : 470 Мбайт (80%)
Библиотека кодирования           : x264 core 125 r2200 999b753
Default                          : Да
Forced                           : Нет

Аудио #1
Идентификатор                    : 2
Формат                           : MPEG Audio
Версия формата                   : Version 1
Профиль формата                  : Layer 3
Режим                            : Joint stereo
Режим смешивания                 : Header stripping
Идентификатор кодека             : A_MPEG/L3
Идентификатор кодека/Подсказка   : MP3
Продолжительность                : 23 м.
Вид битрейта                     : Постоянный
Битрейт                          : 192 Кбит/сек
Каналы                           : 2 канала
Частота                          : 48,0 КГц
Метод сжатия                     : С потерями
Размер потока                    : 32,5 Мбайт (6%)
Заголовок                        : Persona99
Язык                             : Russian
Default                          : Да
Forced                           : Нет

Аудио #2
Идентификатор                    : 3
Формат                           : MPEG Audio
Версия формата                   : Version 1
Профиль формата                  : Layer 3
Режим                            : Joint stereo
Режим смешивания                 : Header stripping
Идентификатор кодека             : A_MPEG/L3
Идентификатор кодека/Подсказка   : MP3
Продолжительность                : 23 м.
Вид битрейта                     : Постоянный
Битрейт                          : 192 Кбит/сек
Каналы                           : 2 канала
Частота                          : 48,0 КГц
Метод сжатия                     : С потерями
Размер потока                    : 32,5 Мбайт (6%)
Заголовок                        : jept
Язык                             : Russian
Default                          : Нет
Forced                           : Нет

Аудио #3
Идентификатор                    : 4
Формат                           : Vorbis
Параметр Floor формата           : 1
Идентификатор кодека             : A_VORBIS
Продолжительность                : 23 м.
Вид битрейта                     : Переменный
Битрейт                          : 256 Кбит/сек
Каналы                           : 2 канала
Частота                          : 48,0 КГц
Метод сжатия                     : С потерями
Размер потока                    : 43,4 Мбайт (7%)
Заголовок                        : Original
Библиотека кодирования           : libVorbis (Schaufenugget) (20101101 (Schaufenugget))
Язык                             : Japanese
Default                          : Нет
Forced                           : Нет

Текст
Идентификатор                    : 5
Формат                           : ASS
Идентификатор кодека             : S_TEXT/ASS
Идентификатор кодека/Информация  : Advanced Sub Station Alpha
Метод сжатия                     : Без потерь
Заголовок                        : Sora_P3_Heaven и Stan WarHammer
Язык                             : Russian
Default                          : Нет
Forced                           : Нет


Скриншоты: - показать




От себя:
Данный релиз был предоставлен товарищем Aglenn, за что ему огромное спасибо.
Дядя Шарик
Релиз от
источник
ARRU & Get Smart & OriGami / ОриГами & REBUILD ARRU
А вы ничего не забыли?
наверх

Последние поступления