ARRU





Yuru Yuri
Лилии на ветру (первый сезон)(2011)[01-12 из 12][BDRip][HWP]   Bookmark


Скачать вход / регистрация
Тема на форуме Обсудить аниме (комментариев: 15)
Обсуждение раздачи (комментариев: 3)
ОписаниеYuru Yuri / Лилии на ветру (первый сезон)(2011)[01-12 из 12][BDRip][HWP]
Оригинальное название: ゆるゆり
Английское название: Yuru Yuri  / Yuruyuri
Русское название: Лилии на ветру
Страна: Япония
Год выпуска: 2011
Жанр: комедия, повседневность, сёдзё-ай, пародия
Категория: TV
Количество эпизодов: 12
Продолжительность: 25 минут
Режиссёр: Ота Масахико
Автор оригинала: Намори
Снято по манге: Yuru Yuri
Студия: Dogakobo


Описание:
  Три давних подружки вместе учатся в средней школе, которая в Японии символизирует новый и важный этап подростковой жизни. Шумная и веселая Кёко желает рисовать все более смелые додзинси про любимую героиню, сдержанная красавица Юй мечтает о «взрослых отношениях», а на год младшая простоватая и неуклюжая Акари сама не знает, чего хочет. Но героиням повезло – теперь вопросы девичьего житья-бытья можно спокойно обсуждать после школы в опустевшем здании чайного клуба, которое Кёко самовольно захватила. А раз весна жизни на пороге, то стихийно возникшее общество назвали просто – «Клуб развлечений»!
  Итак, нас ждет очередная история про дружную девичью компанию, неформальный школьный клуб и веселое времяпровождение. Девчонкам хорошо вместе, а бороться со скукой и обыденностью можно проверенными способами – привлекать новых членов, отбиваться от злюк из школьного Совета, ездить на море, а также пародировать всех и вся! Давно не видели одного аниме–сериала внутри другого? Готовьтесь. Будут ли цвести лилии? А вы как думали? Все будет, и розы тоже!
© Hollow  

Названия эпизодов: - показать

01. Middle School Debut!
02. Me and You and the Student Council
03. Wanna Come Visit?... Yeah, Let`s Go!
04. The Large Summer Harvest Festival
05. When Akari and the Cicadas Cry
06. Art Arter Artist
07. Christmas
08. April Fool
09. I`m Not Scared of This Summer
10. What in the World Have We Learned in Our School Trip, I Wonder
11. Our Amusement Club
12. Our Warm and Fuzzy Overnighter


Источник рипа: BD-Rip [Yousei-raws]
Автор рипа\энкод: Renmei Rei
Тип видео: Без хардсаба
Контейнер: AVI
Видео: XviD (Build 65) | 720 x 404 пикселей | 23,976 кадра/сек | ~1500 Кбит/сек ;

Аудио:
RUS1: AC-3 | 48.0 КГц | стерео | 256 Кбит/сек • одноголосая (жен.) от Kin
RUS2: AC-3 | 48.0 КГц | стерео | 192 Кбит/сек • одноголосая (жен.) от Persona99
JAP:  AC-3 | 48.0 КГц | стерео | 256 Кбит/сек • оригинал

Субтитры: русские | отдельно (SRT, SSA)[Dreamers Team]
Озвучено по переводу: Dreamers Team
(оформление: Amarillis, переводчик: Carver, редактор: Muraki-san)

MediaInfo: - показать
Общее
Полное имя                               : D:\Video\HWP\[AnimeReactor.RU] Yuru Yuri (TV-1)[1-12 of 12][BDRip][HWP]\Yuru Yuri [01 of 12][BDrip][720x404 XviD AC3x3][Kin & GetSmart & Animereactor.RU].avi
Формат                                   : AVI
Формат/Информация                        : Audio Video Interleave
Размер файла                             : 381 Мбайт
Продолжительность                        : 23 м.
Общий поток                              : 2222 Кбит/сек
Программа кодирования                    : VirtualDubModRus 1.5.10.2 (build 2542/release)
Библиотека кодирования                   : VirtualDubMod build 2542/release

Видео
Идентификатор                            : 0
Формат                                   : MPEG-4 Visual
Профиль формата                          : Advanced Simple@L5
Параметр BVOP формата                    : 2
Параметр QPel формата                    : Нет
Параметр GMC формата                     : Без точки перехода
Параметр матрицы формата                 : Default (H.263)
Идентификатор кодека                     : XVID
Идентификатор кодека/Подсказка           : XviD
Продолжительность                        : 23 м.
Битрейт                                  : 1499 Кбит/сек
Ширина                                   : 720 пикселей
Высота                                   : 404 пикселя
Соотношение сторон                       : 16:9
Частота кадров                           : 23,976 кадра/сек
Цветовое пространство                    : YUV
Субдискретизация насыщенности            : 4:2:0
Битовая глубина                          : 8 бит
Тип развёртки                            : Прогрессивная
Метод сжатия                             : С потерями
Бит/(Пиксели*Кадры)                      : 0.215
Размер потока                            : 257 Мбайт (67%)
Библиотека кодирования                   : XviD 65

Аудио #1
Идентификатор                            : 1
Формат                                   : AC-3
Формат/Информация                        : Audio Coding 3
Расширение режима                        : CM (complete main)
Параметр Endianness формата              : Big
Идентификатор кодека                     : 2000
Продолжительность                        : 23 м.
Вид битрейта                             : Постоянный
Битрейт                                  : 256 Кбит/сек
Каналы                                   : 2 канала
Расположение каналов                     : Front: L R
Частота                                  : 44,1 КГц
Битовая глубина                          : 16 бит
Метод сжатия                             : С потерями
Размер потока                            : 43,8 Мбайт (12%)
Выравнивание                             : Разделение по промежуткам
Продолжительность промежутка             : 42  мс. (1,00 видеокадр)
Время предзагрузки промежутка            : 500  мс.
Заголовок                                : Russian [Kin]

Аудио #2
Идентификатор                            : 2
Формат                                   : AC-3
Формат/Информация                        : Audio Coding 3
Расширение режима                        : CM (complete main)
Параметр Endianness формата              : Big
Идентификатор кодека                     : 2000
Продолжительность                        : 23 м.
Вид битрейта                             : Постоянный
Битрейт                                  : 192 Кбит/сек
Каналы                                   : 2 канала
Расположение каналов                     : Front: L R
Частота                                  : 48,0 КГц
Битовая глубина                          : 16 бит
Метод сжатия                             : С потерями
Размер потока                            : 32,9 Мбайт (9%)
Выравнивание                             : Разделение по промежуткам
Продолжительность промежутка             : 42  мс. (1,00 видеокадр)
Время предзагрузки промежутка            : 500  мс.
Заголовок                                : Russian [Persona 99]

Аудио #3
Идентификатор                            : 3
Формат                                   : AC-3
Формат/Информация                        : Audio Coding 3
Расширение режима                        : CM (complete main)
Параметр Endianness формата              : Big
Идентификатор кодека                     : 2000
Продолжительность                        : 23 м.
Вид битрейта                             : Постоянный
Битрейт                                  : 256 Кбит/сек
Каналы                                   : 2 канала
Расположение каналов                     : Front: L R
Частота                                  : 48,0 КГц
Битовая глубина                          : 16 бит
Метод сжатия                             : С потерями
Размер потока                            : 43,8 Мбайт (12%)
Выравнивание                             : Разделение по промежуткам
Продолжительность промежутка             : 42  мс. (1,00 видеокадр)
Время предзагрузки промежутка            : 500  мс.
Заголовок                                : Japanese [Original]


Скриншоты: - показать


Дядя Шарик
Релиз от
источник
ARRU & Get Smart & RenmeiRei & REBUILD ARRU   &   Kin
А вы ничего не забыли?
наверх

Последние поступления