ARRU





Koukaku no Regios
Хромированный Региос [01-24 из 24][DVDRip HWP]   Bookmark


Скачать вход / регистрация
Тема на форуме Обсудить аниме (комментариев: 269)
Обсуждение раздачи (комментариев: 116)
Смотреть онлайн
ОписаниеKoukaku no Regios / Хромированный Региос [01-24 из 24][DVDRip HWP]
Оригинальное название: 鋼殻のレギオス / Koukaku no Regios
Английское название: Chrome Shelled Regios
Русское название: Хромированный Региос

Страна: Япония
Жанр: приключения, фантастика, мистика
Год выхода: 2009
Колличество серий: 24
Продолжительность: 24 мин
Студия: ZEXCS
Режиссёр: Кавасаки Ицуро
Автор оригинала: Амаги Сюсукэ

Описание:
В безжизненном мире, среди пустынь, где обитают насекомообразные чудовища, люди вынуждены жить в передвижных городах, закрытых защитными куполами. Чтобы распределять природные ресурсы, устраиваются состязания между городами, поэтому большое значение придаётся военной подготовке будущих «игроков».

В академию города Зенри поступает Лейфон Алсейф – юноша с выдающимися боевыми навыками, однако выбравший мирную специальность. Но ему не удаётся избежать судьбы: Лейфона переводят на факультет Военных Искусств и записывают в 17-й отряд, состоящий, как принято считать, из одних неудачников. Но познакомившись ближе со своими новыми друзьями, главный герой понимает, что у каждого из них есть своя особенная история – да и он сам меняет своё отношение к необходимости сражаться.

Музыка – пожалуй, единственная слабая сторона этого сериала, но этот недостаток восполняют интересные живые персонажи и захватывающий проработанный сюжет. Боевая сторона «Хромированного Региоса» ничем не уступает драматической, а мир, где мечи соседствуют с пистолетами, придётся по вкусу поклонникам боевой фэнтези.

© Расселл Д. Джонс, (World Art)

Названия эпизодов - показать

01. The City with a Sense of Awareness
02. Capture the Flag!
03. Electric Spirit Czerny
04. Disarmament! Put on Maid Clothing!
05. The Enemy that Hides in the Land of Death
06. The Letter from Grendan
07. Adamandite Restoration
08. The Past Enemy is Now a Lost City
09. The Qualifications of a Heavens Blade Receiver
10. Lukkun's Revenge
11. Spa Resort Karian
12. White Lie
13. Feelings Hiding in the Barrel of a Gun
14. A Ruined Aristocrat`s Reality
15. Feelings That Doesn`t Reach
16. Zuellni Rampage, Polluted Beast Attack!
17. Sarinban Instructing Mercenary Team, Deploy!
18. Nina Disappears! Zuellni In A State of Emergency
19. Guided Encounter
20. Evening at the Pre-War City
21. Kidnapped Felli
22. Invincible Lance Shelled Grendan Draws Near
23.Pieces of Ignasis
24.The City that is to be Born


Источник рипа: DVD-Rip
Автор рипа\энкод: RACER RS
Тип видео: Без хардсаба
Контейнер: AVI
Видео: XviD 65 | 720 x 404 (16:9) | 23,976 fps | 1350-1650 kbps ;

Аудио:
RUS: AC3 | 48000Hz | 192 Kbps | 2ch
JAP: AC3 | 48000Hz | 256 Kbps | 2ch
Субтитры: Ru - soft [ASS]и[SRT]

Озвучивание: Persona99
Перевод: 1-3 hapo, Kitsune; 4- Skyworker; далее - Grean
За прекрасное оформление спасибо: NASTR

MediaInfo: - показать
General
Complete name                            : J:\ARRU Rebuild\Koukaku  no  Regios [24 of 24] (BDRip XviD 720 x 404 AC3) [HWP] [AnimeReactorRu]\Koukaku  no  Regios [07 of 24] (DVDRip 720 x 404 XviD AC3) [Persona99 & AnimeReactorRu].avi
Format                                   : AVI
Format/Info                              : Audio Video Interleave
File size                                : 341 MiB
Duration                                 : 23mn 41s
Overall bit rate                         : 2 011 Kbps
Writing application                      : VirtualDubMod 1.5.10.2 (build 2540/release)
Writing library                          : VirtualDubMod build 2540/release

Video
ID                                       : 0
Format                                   : MPEG-4 Visual
Format profile                           : Advanced Simple@L5
Format settings, BVOP                    : 2
Format settings, QPel                    : No
Format settings, GMC                     : No warppoints
Format settings, Matrix                  : Default (H.263)
Codec ID                                 : XVID
Codec ID/Hint                            : XviD
Duration                                 : 23mn 41s
Bit rate                                 : 1 549 Kbps
Width                                    : 720 pixels
Height                                   : 404 pixels
Display aspect ratio                     : 16:9
Frame rate                               : 23.976 fps
Color space                              : YUV
Chroma subsampling                       : 4:2:0
Bit depth                                : 8 bits
Scan type                                : Progressive
Compression mode                         : Lossy
Bits/(Pixel*Frame)                       : 0.222
Stream size                              : 263 MiB (77%)
Writing library                          : XviD 65

Audio #1
ID                                       : 1
Format                                   : AC-3
Format/Info                              : Audio Coding 3
Mode extension                           : CM (complete main)
Format settings, Endianness              : Big
Codec ID                                 : 2000
Duration                                 : 23mn 41s
Bit rate mode                            : Constant
Bit rate                                 : 192 Kbps
Channel(s)                               : 2 channels
Channel positions                        : Front: L R
Sampling rate                            : 48.0 KHz
Bit depth                                : 16 bits
Compression mode                         : Lossy
Stream size                              : 32.5 MiB (10%)
Alignment                                : Split accross interleaves
Interleave, duration                     : 42 ms (1.00 video frame)
Interleave, preload duration             : 500 ms
Title                                    : Persona99 [Russian]

Audio #2
ID                                       : 2
Format                                   : AC-3
Format/Info                              : Audio Coding 3
Mode extension                           : CM (complete main)
Format settings, Endianness              : Big
Codec ID                                 : 2000
Duration                                 : 23mn 41s
Bit rate mode                            : Constant
Bit rate                                 : 256 Kbps
Channel(s)                               : 2 channels
Channel positions                        : Front: L R
Sampling rate                            : 48.0 KHz
Bit depth                                : 16 bits
Compression mode                         : Lossy
Stream size                              : 43.4 MiB (13%)
Alignment                                : Split accross interleaves
Interleave, duration                     : 42 ms (1.00 video frame)
Interleave, preload duration             : 500 ms
Title                                    : Original [Japanese]

Скриншоты: - показать





Дядя Шарик
Релиз от
источник
ARRU & Get Smart & REBUILD ARRU   &   RACER_RS
А вы ничего не забыли?
наверх

Последние поступления