ARRU





Fullmetal Alchemist: Brotherhood
Стальной алхимик: Братство [01-64 из 64] [BD-Rip HWP]   Bookmark


Скачать вход / регистрация
Тема на форуме Обсудить аниме (комментариев: 735)
Обсуждение раздачи (комментариев: 603)
ОписаниеFullmetal Alchemist: Brotherhood / Стальной алхимик: Братство [01-64 из 64] [BD-Rip HWP]
Оригинальное название: Hagane no Renkinjutsushi
Английское название: Full Metal Alchemist: Brotherhood
Русское название: Стальной алхимик: Братство

Страна: Япония
Жанр: приключения, фэнтези, драма, сёнэн
Год выхода: 2009
Колличество серий: 64
Продолжительность: 24 мин
Студия: BONES
Режиссёр: Ириэ Ясухиро
Сценарий: Оноги Хироси
Композитор: Сэндзю Акира
Автор оригинала: Аракава Хирому

Описание:
Нарушив главный запрет Алхимии и попытавшись воскресить маму, талантливые братья Элрики заплатили высокую цену: младший, Альфонс, потерял тело, и теперь его душа прикреплена к стальным доспехам, а старший, Эдвард, лишился руки и ноги, поэтому ему приходится пользоваться протезами – автобронёй. Благодаря проявленным способностям Эд получил звание государственного алхимика и, таким образом, стал частью военной машины государства. Теперь у него есть шанс вернуть Алу прежнее тело. Впереди странствия и приключения, разгадки страшных тайн и бесконечные сражения…
По сравнению с первой экранизацией, в обновлённом «Стальном Алхимике» даже дизайн персонажей стал более «взрослым». В целом это более динамичное произведение. С первой же серии героев бросает в самую гущу событий: резня в Иштваре, борьба отступников с Армией и фюрером Брэдли, гомункулы и многочисленные «намёки» на дальнейшее развитие истории.
Почти полностью сохранился ансамбль сэйю, и остались прежними характеры героев, но здесь уже иной состав эпизодов, которые играют ключевую роль в формировании образов и объясняют суть происходящего. Вновь серьёзную атмосферу разбавляют юмористические вставки, но сократились светлые моменты счастливой жизни, поэтому сериал кажется более мрачным. Больше внимания уделено второстепенным и третьестепенным персонажам, особенно военным. Что касается сюжета, то основные темы остались неизменными: поиски Философского Камня, расплата за совершённое, политика и коварные планы загадочных врагов.

© Расселл Д. Джонс,World Art

Названия эпизодов: - показать


01. The Full Metal Alchemist
02. The Day It Began
03. Town of Heretics
04. Anguish of the Alchemist
05. Rain of Grief
06. The Road Of Hope
07. The Hidden Truth
08. Research Laboratory
09. Created Feelings
10. Separate Paths
11. The Miracle of Rush Valley
12. One is All, All is One
13. The Beasts of Dublith
14. Those Who Lurk Underground
15. Messenger from the East
16. The Footsteps of a War Comrade
17. Cool-Headed Flames
18. On the Palm of an Arrogant Human Being
19. The Death of the Undying
20. The Father Standing Before a Grave
21. The Fool"s Progress
22. Distant Backs
23. The Girl of The Battlefield
24. Within the Stomach
25. The Door of Darkness
26. Reunion
27. Banquet at the Crevice
28. Father
29. The Fool"s Struggle
30. The Ishbal Annihilation Campaign
31. The Promise Made For 520 Cenz
32. The Son of the Fuhrer
33. The Northern Wall of Briggs
34. Ice Queen
35. The Shape of This Country
36. Family Portrait
37. The Original Homunculus
38. Clash in Baschool
39. Daydream
40. Homunculus
41. Hell
42. The Signs of a Counterattack
43. The Ant's Bite
44. A Full Recovery
45. The Promised Day
46. The Creeping Shadow
47. Messenger of Darkness
48. The Underground Oath
49. Parent and Child Feelings
50. Central Riot
51. Immortal Army
52. Everyone's Power
53. Flame of Vengeance
54. Beyond the Raging Fire
55. The [цензура]s' Way of Life
56. Return of the Fuhrer
57. Eternal Rest
58. Human Sacrifice
59. Light that Was Lost
60. Eye of the Sky, Gate of the Earth
61. The One Who Devoured God
62. The Violent Counterattack
63. The Other Side of the Gate
64. Journey`s End


Источник рипа: BD
Автор рипа\энкод: RACER RS
Тип видео: Без хардсаба
Контейнер: AVI
Видео: XviD 64 | 720 x 404 (16:9) | 23,976 fps | 1450 kbps ;


Аудио:
RUS1: AC3 | 48000Hz | 256 Kbps | 2ch - 1-45 Valkrist & Keneretta; 46-64 Valkrist & Yuuhi (MCA)
RUS2: AC3 | 48000Hz | 256 Kbps | 2ch - Persona99
JAP: AC3 | 48000Hz | 256 Kbps | 2ch - Original
Субтитры: Ru - soft [ASS]и[SRT]

Перевод: Lurid & Stan WarHammer

MediaInfo: - показать
Format                                   : AVI
Format/Info                              : Audio Video Interleave
File size                                : 391 MiB
Duration                                 : 24mn 30s
Overall bit rate                         : 2 233 Kbps
Writing application                      : VirtualDubMod 1.5.10.2 (build 2540/release)
Writing library                          : VirtualDubMod build 2540/release

Video
ID                                       : 0
Format                                   : MPEG-4 Visual
Format profile                           : Advanced Simple@L5
Format settings, BVOP                    : 2
Format settings, QPel                    : No
Format settings, GMC                     : No warppoints
Format settings, Matrix                  : Default (H.263)
Codec ID                                 : XVID
Codec ID/Hint                            : XviD
Duration                                 : 24mn 30s
Bit rate                                 : 1 450 Kbps
Width                                    : 720 pixels
Height                                   : 404 pixels
Display aspect ratio                     : 16:9
Frame rate                               : 23.976 fps
Color space                              : YUV
Chroma subsampling                       : 4:2:0
Bit depth                                : 8 bits
Scan type                                : Progressive
Compression mode                         : Lossy
Bits/(Pixel*Frame)                       : 0.208
Stream size                              : 254 MiB (65%)
Writing library                          : XviD 64

Audio #1
ID                                       : 1
Format                                   : AC-3
Format/Info                              : Audio Coding 3
Mode extension                           : CM (complete main)
Format settings, Endianness              : Big
Codec ID                                 : 2000
Duration                                 : 24mn 12s
Bit rate mode                            : Constant
Bit rate                                 : 256 Kbps
Channel(s)                               : 2 channels
Channel positions                        : Front: L R
Sampling rate                            : 48.0 KHz
Bit depth                                : 16 bits
Compression mode                         : Lossy
Stream size                              : 44.3 MiB (11%)
Alignment                                : Split accross interleaves
Interleave, duration                     : 42 ms (1.01 video frame)
Interleave, preload duration             : 500 ms
Title                                    : Valkrist & Keneretta [Russian]

Audio #2
ID                                       : 2
Format                                   : AC-3
Format/Info                              : Audio Coding 3
Mode extension                           : CM (complete main)
Format settings, Endianness              : Big
Codec ID                                 : 2000
Duration                                 : 24mn 30s
Bit rate mode                            : Constant
Bit rate                                 : 256 Kbps
Channel(s)                               : 2 channels
Channel positions                        : Front: L R
Sampling rate                            : 48.0 KHz
Bit depth                                : 16 bits
Compression mode                         : Lossy
Stream size                              : 44.9 MiB (11%)
Alignment                                : Split accross interleaves
Interleave, duration                     : 42 ms (1.00 video frame)
Interleave, preload duration             : 500 ms
Title                                    : Persona99 [Russian]

Audio #3
ID                                       : 3
Format                                   : AC-3
Format/Info                              : Audio Coding 3
Mode extension                           : CM (complete main)
Format settings, Endianness              : Big
Codec ID                                 : 2000
Duration                                 : 24mn 30s
Bit rate mode                            : Constant
Bit rate                                 : 256 Kbps
Channel(s)                               : 2 channels
Channel positions                        : Front: L R
Sampling rate                            : 48.0 KHz
Bit depth                                : 16 bits
Compression mode                         : Lossy
Stream size                              : 44.9 MiB (11%)
Alignment                                : Split accross interleaves
Interleave, duration                     : 42 ms (1.00 video frame)
Interleave, preload duration             : 500 ms
Title                                    : Original [Japanese]



Скриншоты: - показать





Дядя Шарик
Релиз от
источник
ARRU & Get Smart & Moscow City Animegroup - MCA & REBUILD ARRU   &   RACER_RS
А вы ничего не забыли?
наверх

Последние поступления