ARRU





Судьба: Начало (ТВ-2)/ Fate/Zero 2 (TV-2)(2012)[01-12 из 12][BD-Rip][720p]   Bookmark


Скачать вход / регистрация
Тема на форуме Обсудить аниме (комментариев: 1609)
Обсуждение раздачи (комментариев: 36)
ОписаниеСудьба: Начало (ТВ-2)/ Fate/Zero 2 (TV-2)(2012)[01-12 из 12][BD-Rip][720p]
Оригинальное название: フェイト/ゼロ 2
Английское название: Fate/Zero 2
Русское название: Судьба: Начало [ТВ-2]

Страна: Япония
Год выпуска / период трансляции: c 08.04.2012 по 24.06.2012
Жанр:приключения, фэнтези
Количество эпизодов ТВ: 12
Продолжительность: 25 мин

Студия: UFO Table
Режиссёр: Аоки Эй
Автор оригинала: Уробути Гэн

Описание:
Четвертая война Святого Грааля, величайший магический ритуал, призванный решить судьбы мира, вступает в завершающую фазу. Еще никогда на поле брани не выходили столь могучие воины-Слуги, да и маги-Мастера оказались им под стать. Большинство Мастеров знают, что в этой войне кому-то суждено добыть Грааль, и потому, как разумные люди, наплевали на правила и принялись с первых же часов активно обманывать, подставлять и убивать как врагов, так и союзников. Ряды участников редеют, а битвы уже невозможно скрыть от посторонних, ибо вызванные монстры вот-вот снесут маленький городок Фуюки с лица земли.

Итак, знакомство давно позади, маски сброшены, сильные и слабые стороны каждого Мастера и Слуги известны. Мы узнали, как началась эта история, и знаем, как она закончится. Осталось лишь насладиться тем, что было посередине!

© Hollow World Art

Названия эпизодов: - показать

01. Битва на реке Мион
02. Золотой свет
03. Граница чести
04. Восьмой контракт
05. Далёкие воспоминания
06. Где найдена справедливость
07. Возвращение Убийцы
08. Рыцарь на колеснице
09. Всё зло этого мира
10. Последнее море
11. Финальное заклинание
12. Судьба начало



Качество рипа: BDRip
Автор рипа: Yousei-raws
Тип видео: Без хардсаба
Контейнер: mkv
Видео:AVC (h264) | 10 bit | 1280x720 pixels | ~4500Kbps | 23.976 fps

Внимание:
Видео 10-битное! Скачайте и установите свежую версию СССР или K-Lite (x32) и смотрите видео с помощью встроенного туда плеера MPC-HC,  или установите сборку KMP с использованием LAV Filters. Как еще один вариант, можно использовать VLC.

Аудио:
RUS: AC3 | 48000Hz | ~192 Kbps | 2ch
JAP: Vorbis | 48000Hz | ~2560 Kbps | 2ch

Перевод:Ryou-kai & Hollow  
Субтитры: Shift (серии 01-08) и Ryou-kai & Hollow (серии 09-12)
Озвучивание: Valkrist & Kasumi

MediaInfo: - показать

Общее
Формат                           : Matroska
Версия формата                   : Version 2
Размер файла                     : 948 Мбайт
Продолжительность                : 23 м.
Режим общего битрейта            : Переменный
Общий поток                      : 5594 Кбит/сек
Дата кодирования                 : UTC 2012-12-15 05:23:22
Программа кодирования            : mkvmerge v3.4.0 сборка от May 15 2010 09:38:20
Библиотека кодирования           : libebml v0.8.0 + libmatroska v0.9.0

Видео
Идентификатор                    : 1
Формат                           : AVC
Формат/Информация                : Advanced Video Codec
Профиль формата                  : High 10@L4.1
Параметр CABAC формата           : Да
Параметр ReFrames формата        : 9 кадров
Идентификатор кодека             : V_MPEG4/ISO/AVC
Продолжительность                : 23 м.
Битрейт                          : 5035 Кбит/сек
Ширина                           : 1280 пикселей
Высота                           : 720 пикселей
Соотношение сторон               : 16:9
Частота кадров                   : 23,976 кадра/сек
Цветовое пространство            : YUV
Субдискретизация насыщенности    : 4:2:0
Битовая глубина                  : 10 бит
Тип развёртки                    : Прогрессивная
Бит/(Пиксели*Кадры)              : 0.228
Размер потока                    : 854 Мбайт (90%)
Заголовок                        : Yousei-raws
Библиотека кодирования           : x264 core 125 r2200 999b753
Язык                             : Japanese
Default                          : Да
Forced                           : Нет

Аудио #1
Идентификатор                    : 2
Формат                           : AC-3
Формат/Информация                : Audio Coding 3
Расширение режима                : CM (complete main)
Идентификатор кодека             : A_AC3
Продолжительность                : 23 м.
Вид битрейта                     : Постоянный
Битрейт                          : 192 Кбит/сек
Каналы                           : 2 канала
Расположение каналов             : Front: L R
Частота                          : 48,0 КГц
Битовая глубина                  : 16 бит
Метод сжатия                     : С потерями
Размер потока                    : 32,5 Мбайт (3%)
Заголовок                        : Valkrist & Kasumi
Язык                             : Russian
Default                          : Да
Forced                           : Нет

Аудио #2
Идентификатор                    : 3
Формат                           : Vorbis
Параметр Floor формата           : 1
Идентификатор кодека             : A_VORBIS
Продолжительность                : 23 м.
Вид битрейта                     : Переменный
Битрейт                          : 256 Кбит/сек
Каналы                           : 2 канала
Частота                          : 48,0 КГц
Метод сжатия                     : С потерями
Размер потока                    : 43,4 Мбайт (5%)
Заголовок                        : Original
Библиотека кодирования           : libVorbis (Schaufenugget) (20101101 (Schaufenugget))
Язык                             : Japanese
Default                          : Нет
Forced                           : Нет

Текст
Идентификатор                    : 4
Формат                           : ASS
Идентификатор кодека             : S_TEXT/ASS
Идентификатор кодека/Информация  : Advanced Sub Station Alpha
Метод сжатия                     : Без потерь
Заголовок                        : Shift & Ryou-kai & Hollow
Язык                             : Russian
Default                          : Нет
Forced                           : Нет


Скриншоты: - показать




От себя:
Данный релиз был предоставлен товарищем Aglenn, за что ему огромное спасибо.
Дядя Шарик
Релиз от
источник
ARRU & Moscow City Animegroup - MCA & REBUILD ARRU
А вы ничего не забыли?
наверх

Последние поступления