ARRU





Kampfer
Кампфер (2009)[01-12 из 12][BDRip][HWP]   Bookmark


Скачать вход / регистрация
Тема на форуме Обсудить аниме (комментариев: 349)
Обсуждение раздачи (комментариев: 150)
ОписаниеKampfer / Кампфер (2009)[01-12 из 12][BDRip][HWP]
Оригинальное название: けんぷファー
Английское название: Kampfer
Русское название: Кампфер
Страна: Япония
Год выпуска / период трансляции: с 02.10.2009
Жанр: приключения, комедия, школа
Количество эпизодов ТВ: 12
Продолжительность: 25 мин
Режиссёр: Курода Ясухиро
Автор оригинала: Цукидзи Тосихико
Студия:

Описание:
Обычно подарки получать приятно, но старшеклассник Сэно Нацуру с этим вряд ли согласился бы. Приняв от своей соседки Каэдэ плюшевую игрушку по мотивам популярного в своем мире аниме-сериала «Зомоцу», он в нагрузку получил еще таинственный браслет и звание Кэмпфера – элитного бойца, который должен сражаться с себе подобными неизвестно за что. А так как все Бойцы – девушки, то нескладному и застенчивому Сэно приходится перед битвой превращаться в сногсшибательную красавицу, по праву заслужившую титул «третьей богини школы Сэйтэцу». Немного освоившись в новом качестве, парень понял, что нет худа без добра - ведь одна из «богинь», уже упомянутая Каэдэ, просто влюбилась (правда, в его женскую ипостась), а вторая – неприступный президент школьного Совета Сидзуку – стала хоть и строгой, но доброжелательной подругой-соперницей.
Итак, королевская битва началась! Теперь новоявленному Избранному осталось только разобраться в цели и смысле игры, отбиться от происков настырных парней из «Клуба исследования красоток» и решить, как быть дальше с многочисленным отрядом поклонников и поклонниц. Дело непростое – уж лучше пару раз мир спасти!
© Hollow


Названия эпизодов:
01. Судьба ~Избранные~
02. Сияние ~Битва начинается~
03. Лилия ~Тайный сад~
04. Объявление войны ~Амазонки~
05. Комедия ~Первый Поцелуй~
06. Возвращение ~Друг или Враг~
07. Приглашение ~Незваные Гости~
08. Романтика ~Первое Свидание~
09. Лето ~Пламенная Любовь~
10. Ловушка ~Южная Ночь~
11. Выбор ~Песнь Эйфории~
12. рождество ~Чудо Зверюшек Для Садистов~

Источник рипа: BD-Rip [Commie]
Автор рипа\энкод: Renmei Rei
Тип видео: Без хардсаба
Контейнер: AVI
Видео: XviD (Build 65) | 720 x 404 пикселей | 23,976 кадра/сек | ~1500 Кбит/сек ;

Аудио:
RUS: AC-3 | 48.0 КГц | стерео | 192 Кбит/сек;
JAP:  AC-3 | 48.0 КГц | стерео | 256 Кбит/сек

Субтитры: русские | отдельно (SRT, SSA)[Advantage]
Озвучено по переводу: Carrier88
Озвучивание: Marie & Carrier88

MediaInfo: - показать
Общее
Полное имя                               : D:\Video\HWP\[AnimeReactor.RU] Kampfer (TV)[1-12 of 12][BDRip][HWP]\Kampfer [01 of 12][BDRip][720x404 XviD AC3x2][Marie & Carrier88 & AnimeReactor.RU].avi
Формат                                   : AVI
Формат/Информация                        : Audio Video Interleave
Размер файла                             : 339 Мбайт
Продолжительность                        : 24 м.
Общий поток                              : 1962 Кбит/сек
Программа кодирования                    : VirtualDubModRus 1.5.10.2 (build 2542/release)
Библиотека кодирования                   : VirtualDubMod build 2542/release

Видео
Идентификатор                            : 0
Формат                                   : MPEG-4 Visual
Профиль формата                          : Advanced Simple@L5
Параметр BVOP формата                    : 2
Параметр QPel формата                    : Нет
Параметр GMC формата                     : Без точки перехода
Параметр матрицы формата                 : Default (H.263)
Идентификатор кодека                     : XVID
Идентификатор кодека/Подсказка           : XviD
Продолжительность                        : 24 м.
Битрейт                                  : 1500 Кбит/сек
Ширина                                   : 720 пикселей
Высота                                   : 404 пикселя
Соотношение сторон                       : 16:9
Частота кадров                           : 23,976 кадра/сек
Цветовое пространство                    : YUV
Субдискретизация насыщенности            : 4:2:0
Битовая глубина                          : 8 бит
Тип развёртки                            : Прогрессивная
Метод сжатия                             : С потерями
Бит/(Пиксели*Кадры)                      : 0.215
Размер потока                            : 259 Мбайт (76%)
Библиотека кодирования                   : XviD 65

Аудио #1
Идентификатор                            : 1
Формат                                   : AC-3
Формат/Информация                        : Audio Coding 3
Расширение режима                        : CM (complete main)
Параметр Endianness формата              : Big
Идентификатор кодека                     : 2000
Продолжительность                        : 24 м.
Вид битрейта                             : Постоянный
Битрейт                                  : 192 Кбит/сек
Каналы                                   : 2 канала
Расположение каналов                     : Front: L R
Частота                                  : 48,0 КГц
Битовая глубина                          : 16 бит
Метод сжатия                             : С потерями
Размер потока                            : 33,2 Мбайт (10%)
Выравнивание                             : Разделение по промежуткам
Продолжительность промежутка             : 42  мс. (1,00 видеокадр)
Время предзагрузки промежутка            : 500  мс.
Заголовок                                : Russian [Marie & Carrier88]

Аудио #2
Идентификатор                            : 2
Формат                                   : AC-3
Формат/Информация                        : Audio Coding 3
Расширение режима                        : CM (complete main)
Параметр Endianness формата              : Big
Идентификатор кодека                     : 2000
Продолжительность                        : 24 м.
Вид битрейта                             : Постоянный
Битрейт                                  : 256 Кбит/сек
Каналы                                   : 2 канала
Расположение каналов                     : Front: L R
Частота                                  : 48,0 КГц
Битовая глубина                          : 16 бит
Метод сжатия                             : С потерями
Размер потока                            : 44,2 Мбайт (13%)
Выравнивание                             : Разделение по промежуткам
Продолжительность промежутка             : 42  мс. (1,00 видеокадр)
Время предзагрузки промежутка            : 500  мс.
Заголовок                                : Japanese [Original]


Скриншоты: - показать


Дядя Шарик
Релиз от
источник
ARRU & Carrier88 & RenmeiRei & REBUILD ARRU
А вы ничего не забыли?
наверх

Последние поступления