ARRU





Steins;Gate
Врата Штейна (2011)[01-24 из 24 + Special][BDRip][HWP]   Bookmark


Скачать вход / регистрация
Тема на форуме Обсудить аниме (комментариев: 209)
Обсуждение раздачи (комментариев: 31)
ОписаниеSteins;Gate / Врата Штейна (2011)[01-24 из 24 + Special][BDRip][HWP]

Оригинальное название: シュタインズ・ゲート
Английское название: Steins;Gate
Русское название: Врата Штейна
Страна: Япония
Выпуск: c 06.04.2011
Жанр: приключения, фантастика
Возрастное ограничение: 12+
Режиссёр: Сато Такуя
Сценарий: Ханада Дзюкки

Описание:
Акихабара – интереснейшее место, где обитают самые разные люди – от слегка сдвинутых по фазе до больных на всю голову. Именно такая компания собралась в «Лаборатории проблем времени», что над лавкой старых телевизоров. Возглавляет ее «настоящий буйный», 18-летний Ринтаро Окабэ, сумасшедший ученый и борец с мировым заговором. В серьезном деле нельзя без хакера – вот и он, Итару Хасида, конечно же, толстяк и истинный отаку. Добрая фея лаборатории – Маюри Сиина, подруга детства Ринтаро, официантка мейд-кафе и фанатка косплея, а научную мощь бригады резко повысила юный гений Курису Макисэ, стосковавшаяся по интеллектуальным приключениям и простому человеческому теплу.

Конечно же, ребятам удалось построить машину времени из микроволновки и барахла с ближайшей распродажи. Великие открытия делают любители – профессионалы строят «Титаники». Вот только потом началось такое, что «парадокс дедушки» нервно удалился курить в сторонку, а главный герой трижды проклял тот день, когда сдуру открыл «врата Штейна». Он был готов рисковать своей жизнью, но не чужими… Впрочем, сделанного, как известно, не воротишь. Или… все же можно?
© Hollow


Список эпизодов:
01. Prologue of the Beginning and the End
02. Time Travel Paranoia
03. Parallel World Paranoia
04. Rendezvous of Abstract Fluctuation
05. Rendezvous of Electrical Charge Conflict
06. Butterfly Effect`s Divergence
07. Divergence Singularity
08. Homeostasis of Dreams
09. Homeostasis of Illusions
10. Homeostasis of Complements
11. Dogma in Event Horizon
12. Dogma in Ergosphere
13. Metaphysics Necrosis
14. Physically Necrosis
15. Missing Link Necrosis
16. Sacrificial Necrosis
17. Made in Complex
18. Fractal Androgynous
19. Endless Apoptosis
20. Finalize Apoptosis
21. Melt of the Principle of Causality
22. Being Meltdown
23. Steins Gate Boundary
24. Prologue to the End and the Beginning

Special (25). Egoistic Poriomania


Источник рипа: BD-Rip [Yousei-raws][1080p]
Автор рипа\энкод: Renmei Rei
Тип видео: Без хардсаба
Контейнер: AVI
Видео: XviD (Build 65) | 720 x 404 пикселей | 23,976 кадра/сек | ~1200-1500 Кбит/сек ;

Аудио:
RUS: AC-3 | 48.0 КГц | стерео | 256 Кбит/сек;
JAP:  AC-3 | 48.0 КГц | стерео | 256 Кбит/сек

Внимание: теперь звук в японской дорожке 3, 7 и спешле воспроизводится.

Субтитры: русские (полные, вспомогалельные) | отдельно [SRT,SSA][Hyakka Ryoran Fansubs]
Озвучено по переводу: Dreamers Team
Озвучивание: Persona99 & JeFerSon

MediaInfo: - показать
Общее
Полное имя                               : D:\Video\HWP\[AnimeReactor.RU] Steins;Gate (TV)[1-24 of 24 + SP][BDRip][HWP]\Steins;Gate [01 of 24][BDrip][720x404 XviD AC3x2][Persona99 & JeFerSon & AnimeReactor.RU].avi
Формат                                   : AVI
Формат/Информация                        : Audio Video Interleave
Размер файла                             : 344 Мбайт
Продолжительность                        : 23 м.
Общий поток                              : 2008 Кбит/сек
Программа кодирования                    : VirtualDubModRus 1.5.10.2 (build 2542/release)
Библиотека кодирования                   : VirtualDubMod build 2542/release

Видео
Идентификатор                            : 0
Формат                                   : MPEG-4 Visual
Профиль формата                          : Advanced Simple@L5
Параметр BVOP формата                    : 2
Параметр QPel формата                    : Нет
Параметр GMC формата                     : Без точки перехода
Параметр матрицы формата                 : Default (H.263)
Идентификатор кодека                     : XVID
Идентификатор кодека/Подсказка           : XviD
Продолжительность                        : 23 м.
Битрейт                                  : 1482 Кбит/сек
Ширина                                   : 720 пикселей
Высота                                   : 404 пикселя
Соотношение сторон                       : 16:9
Частота кадров                           : 23,976 кадра/сек
Цветовое пространство                    : YUV
Субдискретизация насыщенности            : 4:2:0
Битовая глубина                          : 8 бит
Тип развёртки                            : Прогрессивная
Метод сжатия                             : С потерями
Бит/(Пиксели*Кадры)                      : 0.212
Размер потока                            : 254 Мбайт (74%)
Библиотека кодирования                   : XviD 65

Аудио #1
Идентификатор                            : 1
Формат                                   : AC-3
Формат/Информация                        : Audio Coding 3
Расширение режима                        : CM (complete main)
Параметр Endianness формата              : Big
Идентификатор кодека                     : 2000
Продолжительность                        : 23 м.
Вид битрейта                             : Постоянный
Битрейт                                  : 256 Кбит/сек
Каналы                                   : 2 канала
Расположение каналов                     : Front: L R
Частота                                  : 48,0 КГц
Битовая глубина                          : 16 бит
Метод сжатия                             : С потерями
Размер потока                            : 43,9 Мбайт (13%)
Выравнивание                             : Разделение по промежуткам
Продолжительность промежутка             : 42  мс. (1,00 видеокадр)
Время предзагрузки промежутка            : 500  мс.
Заголовок                                : Russian [Persona99 & JeFerSon]

Аудио #2
Идентификатор                            : 2
Формат                                   : AC-3
Формат/Информация                        : Audio Coding 3
Расширение режима                        : CM (complete main)
Параметр Endianness формата              : Big
Идентификатор кодека                     : 2000
Продолжительность                        : 23 м.
Вид битрейта                             : Постоянный
Битрейт                                  : 256 Кбит/сек
Каналы                                   : 2 канала
Расположение каналов                     : Front: L R
Частота                                  : 48,0 КГц
Битовая глубина                          : 16 бит
Метод сжатия                             : С потерями
Размер потока                            : 43,9 Мбайт (13%)
Выравнивание                             : Разделение по промежуткам
Продолжительность промежутка             : 42  мс. (1,00 видеокадр)
Время предзагрузки промежутка            : 500  мс.
Заголовок                                : Japanese [Original]


Скриншоты: - показать


Дядя Шарик
Релиз от
источник
ARRU & JeFerSon & Get Smart & RenmeiRei & REBUILD ARRU
А вы ничего не забыли?
наверх

Последние поступления