ARRU





Senjou no Valkyria Gallian Chronicles
Хроники Валькирии [01-26 из 26] + [Special 01-09 из 9] BD-Rip 720p   Bookmark


Скачать вход / регистрация
Тема на форуме Обсудить аниме (комментариев: 94)
Обсуждение раздачи (комментариев: 64)
Смотреть онлайн
ОписаниеSenjou no Valkyria Gallian Chronicles / Хроники Валькирии [01-26 из 26] + [Special 01-09 из 9] BD-Rip 720p
Оригинальное название: 戦場のヴァルキュリア / Senjou no Valkyria Gallian Chronicles
Английское название: Valkyria Chronicles
Русское название: Хроники Валькирии

Страна: Япония
Жанр: приключения, романтика, комедия, драма
Год выхода: 2009
Колличество серий: 26 серий + 9 спешлов
Продолжительность: 24 мин
Студия:  A1
Режиссёр: Ямамото Ясутака
Автор оригинала: Ёкотэ Митико

Описание:
В альтернативном мире, похожем на Европу середины 30-х годов XX века, в борьбе за власть сошлись две сверхдержавы – Восточно-Европейский Имперский Союз и Атлантическая Федерация. Чтобы пополнить ресурсы, Империя вторгается в небольшое королевство Галлию, где в изобилии уникальное топливо – рагнит, «камень владык». Правящий дом Галлии слаб и давно утратил реальную власть, но народ решил стоять до конца. Городок Брюль в панике эвакуируется перед надвигающимся фронтом, и тут офицеру ополчения Алисии Мелькиотт докладывают, что у реки замечен шпион…

Аниме расскажет о борьбе маленькой, но гордой Галлии против захватчиков, о боевых буднях 7-го сводного отряда, где служат главные герои, о том, что испытания открывают истинную сущность людей и помогают понять друг друга, несмотря на национальные, расовые и идеологические различия. Свою порцию удовольствия получат и любители масштабных сражений, и ценители политических интриг, и мистической «тайной истории».

© Hollow

Названия эпизодов - показать

01. Встреча на войне
02. Прощание над одуванчиками
03. Рождение Седьмого отряда
04. Краткий Выходной
05. Внезапная атака в Клодене
06. Военкор, вперёд!
07. Даркийская катастрофа
08. Истинная История
09. Лазурная Ведьма
10. Ночь снежной бури
11. Незваные гости
12. Похищенная принцесса
13. Бронепоезд Ужаса
14. Трудные решения в Фаузене
15. Прошлое поющей принцессы
16. Невысказанные чувства
17. Дары духов
18. Августовский дождь
19. Слёзы
20. Возлюбленная
21. Незримые узы
22. Замешательство
23. Форма любви
24. Решимость
25. Кого я защищаю
26. Решающая битва

Спешлы:
01. Театр Валькирии — День на пляже
02. Театр Валькирии — Летний Фестиваль в Галлии
03. Театр Валькирии — Шок! Драгоценные фотографии
04. Театр Валькирии — Великий выходной Сельверии
05. Театр Валькирии — Устрашающий джокер
06. Театр Валькирии — Тихая беседа в женской бане
07. Театр Валькирии — Новый Седьмой отряд
08. Театр Валькирии — Секрет Корделии
09. Театр Валькирии— Клянёмся навеки


Источник рипа: BD-Rip
Автор рипа\энкод: RACER RS
Тип видео: Без хардсаба
Контейнер: MKV
Видео: AVC1 High@L5.1| 1280 x 720 (16:9) | 23,976 fps | 2500 kbps ;

Аудио:
RUS: AAC | 48000Hz | 256 Kbps | 2ch
JAP: AC3 | 48000Hz | 256 Kbps | 2ch
Субтитры: Ru - soft [ASS]

Озвучивание: Persona99 & MaxDamege
Перевод: Ryou-kai & Hollow
За обложку спасбо NASTR

MediaInfo: - показать
Format                                   : Matroska
Format version                           : Version 2
File size                                : 510 MiB
Duration                                 : 23mn 41s
Overall bit rate                         : 3 013 Kbps
Encoded date                             : UTC 2012-11-23 10:16:42
Writing application                      : mkvmerge v5.3.0 ('I could have danced' built on Feb  9 2012 10:38:07
Writing library                          : libebml v1.2.3 + libmatroska v1.3.0

Video
ID                                       : 1
Format                                   : AVC
Format/Info                              : Advanced Video Codec
Format profile                           : High@L5.1
Format settings, CABAC                   : No
Format settings, ReFrames                : 2 frames
Muxing mode                              : Header stripping
Codec ID                                 : V_MPEG4/ISO/AVC
Duration                                 : 23mn 41s
Bit rate                                 : 2 500 Kbps
Width                                    : 1 280 pixels
Height                                   : 720 pixels
Display aspect ratio                     : 16:9
Frame rate mode                          : Constant
Frame rate                               : 23.976 fps
Color space                              : YUV
Chroma subsampling                       : 4:2:0
Bit depth                                : 8 bits
Scan type                                : Progressive
Bits/(Pixel*Frame)                       : 0.113
Stream size                              : 414 MiB (81%)
Writing library                          : x264 core 120 r2146M bcd41db
Encoding settings                        : cabac=0 / ref=1 / deblock=1:0:0 / analyse=0x3:0x133 / me=hex / subme=10 / psy=1 / psy_rd=1.00:0.20 / mixed_ref=0 / me_range=16 / chroma_me=1 / trellis=2 / 8x8dct=1 / cqm=0 / deadzone=21,11 / fast_pskip=1 / chroma_qp_offset=-3 / threads=8 / sliced_threads=0 / nr=0 / decimate=1 / interlaced=0 / bluray_compat=0 / constrained_intra=0 / bframes=1 / b_pyramid=0 / b_adapt=2 / b_bias=0 / direct=3 / weightb=1 / open_gop=0 / weightp=2 / keyint=230 / keyint_min=23 / scenecut=40 / intra_refresh=0 / rc_lookahead=0 / rc=2pass / mbtree=1 / bitrate=2500 / ratetol=1.0 / qcomp=0.60 / qpmin=10 / qpmax=51 / qpstep=4 / cplxblur=20.0 / qblur=0.5 / ip_ratio=1.40 / aq=1:1.00
Default                                  : Yes
Forced                                   : No

Audio #1
ID                                       : 2
Format                                   : AC-3
Format/Info                              : Audio Coding 3
Mode extension                           : CM (complete main)
Format settings, Endianness              : Big
Muxing mode                              : Header stripping
Codec ID                                 : A_AC3
Duration                                 : 23mn 41s
Bit rate mode                            : Constant
Bit rate                                 : 256 Kbps
Channel(s)                               : 2 channels
Channel positions                        : Front: L R
Sampling rate                            : 48.0 KHz
Bit depth                                : 16 bits
Compression mode                         : Lossy
Stream size                              : 43.4 MiB (8%)
Title                                    : Persona99 & MaxDamage
Language                                 : Russian
Default                                  : Yes
Forced                                   : No

Audio #2
ID                                       : 3
Format                                   : AC-3
Format/Info                              : Audio Coding 3
Mode extension                           : CM (complete main)
Format settings, Endianness              : Big
Muxing mode                              : Header stripping
Codec ID                                 : A_AC3
Duration                                 : 23mn 41s
Bit rate mode                            : Constant
Bit rate                                 : 256 Kbps
Channel(s)                               : 2 channels
Channel positions                        : Front: L R
Sampling rate                            : 48.0 KHz
Bit depth                                : 16 bits
Compression mode                         : Lossy
Stream size                              : 43.4 MiB (8%)
Title                                    : Original
Language                                 : Japanese
Default                                  : No
Forced                                   : No

Text
ID                                       : 4
Format                                   : ASS
Codec ID                                 : S_TEXT/ASS
Codec ID/Info                            : Advanced Sub Station Alpha
Compression mode                         : Lossless
Language                                 : Russian
Default                                  : No
Forced                                   : No

Скриншоты: - показать



Дядя Шарик
Релиз от
источник
ARRU & Get Smart & REBUILD ARRU   &   RACER RS
А вы ничего не забыли?
наверх

Последние поступления