ARRU





Tonagura
Соседи! (2006)[01-13 из 13][DVDRip]   Bookmark


Скачать вход / регистрация
Тема на форуме Обсудить аниме (комментариев: 4)
Обсуждение раздачи (комментариев: 117)
Смотреть онлайн
ОписаниеTonagura / Соседи! (2006)[01-13 из 13][DVDRip]
Оригинальное название: となグラ
Английское название: Tonagura!
Русское название: Соседи!

Страна: Япония
Год выпуска / период трансляции: c 09.07.2006 по 01.10.2006
Жанр: комедия, романтика, эротика, сёнэн
Количество эпизодов ТВ: 13
Продолжительность: 25 мин


Студия:Doumu
Режиссёр: Абэ Тацуя
Сценарий: Абэ Тацуя
Автор оригинала: Какэй Хидэтака

Описание:
Арисака Кадзуки учится в первом классе старшей школы, но все еще лелеет в памяти свою детскую любовь – соседского мальчика Юдзи. Семьи Арисака и Кагура жили по соседству, окна в окна, и дети – Кадзуки и Юдзи, Мари и Хацунэ – играли все вместе. Потом родители Юдзи переехали, а Кадзуки десять лет вспоминала своего лучшего друга и берегла так и не врученную ему любовную записку.

И вот – о, чудо, о, исполнение надежд!!! – Юдзи Кагура возвращается в свой прежний дом. У Кадзуки появится долгожданная возможность отдать ему письмо и открыть сердце... для нее десять лет минули незаметно. Но не для Юдзи – он вырос, возмужал и тяжело переносит юношескую гормональную революцию. Так что вместо нежного мальчика через балкон от Кадзуки поселяется всерьез озабоченный подросток...

© Анастасия Розанова World Art

Названия эпизодов:
01. A 30cm Unrequited Love
02. Aloof Kazuki And The Apron Of Temptation
03. Smart Yuuji And Startled Kazuki
04. Nya~
05. Let's Break Up!!
06. Hugging Princess?
07. Strongest☆Invincible My Sister
08. Kazuki x Hatsune Swimming Showdown
09. Are You By Any Chance, Jealous?
10. It's A Bikini? Everyone Gathers
11. Yukata And Fireworks And A Broken Sandal Strap
12. A Letter To Yuuji And Memories From Ten Years Ago
13. Veranda And Paper Planes


Качество рипа: DVDRip
Автор рипа: Hoodlum @ANE
Тип видео: Без хардсаба
Контейнер: mkv
Видео: AVC(x264) | 1024x576 pixels | 23.976 fps | ~1900 Kbps,
   
Аудио:
RUS: MP3 | 44100Hz | 128 Kbps | 2ch  
JAP: AC3 | 48000Hz | ~450 Kbps | 2ch
Субтитры:  есть

Озвучивание: Nikolass (1-6) и Cuba77 (7-13)
Перевод: Stan WarHammer
Субтитры: Witwood

MediaInfo: - показать

Общее
Формат                           : Matroska
Версия формата                   : Version 2
Размер файла                     : 414 Мбайт
Продолжительность                : 23 м.
Общий поток                      : 2418 Кбит/сек
Название фильма                  : [Hoodlum] Tonagura! 01 (DVD 1024x576 x264 AC-3)
Дата кодирования                 : UTC 2012-11-24 11:58:34
Программа кодирования            : mkvmerge v3.4.0 сборка от May 15 2010 09:38:20
Библиотека кодирования           : libebml v0.8.0 + libmatroska v0.9.0

Видео
Идентификатор                    : 1
Формат                           : AVC
Формат/Информация                : Advanced Video Codec
Профиль формата                  : High@L4.1
Параметр CABAC формата           : Да
Параметр ReFrames формата        : 12 кадров
Идентификатор кодека             : V_MPEG4/ISO/AVC
Продолжительность                : 23 м.
Битрейт                          : 1863 Кбит/сек
Ширина                           : 1024 пикселя
Высота                           : 576 пикселей
Соотношение сторон               : 16:9
Частота кадров                   : 23,976 кадра/сек
Цветовое пространство            : YUV
Субдискретизация насыщенности    : 4:2:0
Битовая глубина                  : 8 бит
Тип развёртки                    : Прогрессивная
Бит/(Пиксели*Кадры)              : 0.132
Размер потока                    : 307 Мбайт (74%)
Заголовок                        : Hoodlum @ANE
Библиотека кодирования           : x264 core 104 r1688 0b36c6d
Язык                             : Japanese
Default                          : Да
Forced                           : Нет

Аудио #1
Идентификатор                    : 2
Формат                           : MPEG Audio
Версия формата                   : Version 1
Профиль формата                  : Layer 3
Режим                            : Joint stereo
Расширение режима                : MS Stereo
Идентификатор кодека             : A_MPEG/L3
Идентификатор кодека/Подсказка   : MP3
Продолжительность                : 23 м.
Вид битрейта                     : Постоянный
Битрейт                          : 128 Кбит/сек
Каналы                           : 2 канала
Частота                          : 44,1 КГц
Метод сжатия                     : С потерями
Размер потока                    : 21,9 Мбайт (5%)
Заголовок                        : Nikolass & Cuba77
Язык                             : Russian
Default                          : Да
Forced                           : Нет

Аудио #2
Идентификатор                    : 3
Формат                           : AC-3
Формат/Информация                : Audio Coding 3
Расширение режима                : CM (complete main)
Идентификатор кодека             : A_AC3
Продолжительность                : 23 м.
Вид битрейта                     : Постоянный
Битрейт                          : 448 Кбит/сек
Каналы                           : 2 канала
Расположение каналов             : Front: L R
Частота                          : 48,0 КГц
Битовая глубина                  : 16 бит
Метод сжатия                     : С потерями
Размер потока                    : 76,6 Мбайт (19%)
Заголовок                        : Original
Язык                             : Japanese
Default                          : Нет
Forced                           : Нет

Текст
Идентификатор                    : 4
Формат                           : ASS
Идентификатор кодека             : S_TEXT/ASS
Идентификатор кодека/Информация  : Advanced Sub Station Alpha
Метод сжатия                     : Без потерь
Заголовок                        : Witwood
Язык                             : Russian
Default                          : Нет
Forced                           : Нет


Скриншоты: - показать




От себя:
Данный релиз был предоставлен товарищем Aglenn, за что ему огромное спасибо.
Дядя Шарик
Релиз от
источник
ARRU & Cuba77 & REBUILD ARRU   &   Nikolass
А вы ничего не забыли?
наверх

Последние поступления