ARRU





Juubee Ninpuuchou
Манускрипт ниндзя (Movie)(1993)[BD-Rip][720p]   Bookmark


Скачать вход / регистрация
Тема на форуме Обсудить фильм (комментариев: 3)
ОписаниеJuubee Ninpuuchou / Манускрипт ниндзя (Movie)(1993)[BD-Rip][720p]
Оригинальное название: Juubee Ninpuuchou
Английское название: Ninja Scroll
Русское название: Манускрипт ниндзя

Страна: Япония
Год выпуска / период трансляции: 05.06.1993
Жанр:  самурайский боевик, фэнтези, эротика
Количество эпизодов ТВ: полнометражный фильм
Продолжительность: 92 мин
Возрастное ограничение: +16

Студия:
Режиссёр: Кавадзири Ёсиаки
Автор оригинала: Кавадзири Ёсиаки


Описание:
Япония, начало ХVII века. Люди бегут из провинции Ямасиро, где внезапно началась чума - болезнь в этих краях совершенно неизвестная. Воины клана Кога, отправленные выяснить обстоятельства возникновения эпидемии, жестоко убиты загадочными существами. Из всего отряда разведчиков уцелеть удаётся лишь девушке-бойцу Кагэро. Странствующий ниндзя Дзюбэй, по счастливой случайности оказавшийся неподалеку, спасает её от верной смерти, одолев в жестокой схватке одного из нападавших. Вскоре выясняется, что от руки Дзюбэя пал не просто странный головорез, а один из "Восьми Демонов Кимана" - могущественных воинов со сверхчеловеческими способностями. Цель демонов и их повелителя, загадочного Сёгуна Тьмы - утопить Японию в водовороте новой гражданской войны. Дзюбэй и Кагэро изо всех сил стараются помешать им, проникаясь все большей симпатией друг к другу...

World Art


Качество рипа: BDRip
Автор рипа: Adelaide
Тип видео: Без хардсаба
Контейнер: mkv
Видео: AVC (h264) | 10 bit | 972x720 pixels | ~3100Kbps | 23.976 fps


Внимание:
Видео 10-битное! Скачайте и установите свежую версию СССР или K-Lite (x32) и смотрите видео с помощью встроенного туда плеера MPC-HC,  или установите сборку KMP с использованием LAV Filters. Как еще один вариант, можно использовать VLC.

Аудио:
RUS: AC3 | 48000Hz | 384 Kbps | 6ch
JAP: DTS-HD MA | 48000Hz | ~1100 Kbps | 2ch

Перевод:MC Entertainment
Озвучивание:MC Entertainment

MediaInfo: - показать

Общее
Формат                           : Matroska
Версия формата                   : Version 2
Размер файла                     : 3,40 Гбайт
Продолжительность                : 1 ч. 31 м.
Режим общего битрейта            : Переменный
Общий поток                      : 5316 Кбит/сек
Дата кодирования                 : UTC 2012-11-24 11:44:32
Программа кодирования            : mkvmerge v3.4.0 сборка от May 15 2010 09:38:20
Библиотека кодирования           : libebml v0.8.0 + libmatroska v0.9.0

Видео
Идентификатор                    : 1
Формат                           : AVC
Формат/Информация                : Advanced Video Codec
Профиль формата                  : High 10@L4.1
Параметр CABAC формата           : Да
Параметр ReFrames формата        : 9 кадров
Идентификатор кодека             : V_MPEG4/ISO/AVC
Продолжительность                : 1 ч. 31 м.
Битрейт                          : 4024 Кбит/сек
Ширина                           : 972 пикселя
Высота                           : 720 пикселей
Соотношение сторон               : 4:3
Частота кадров                   : 23,976 кадра/сек
Цветовое пространство            : YUV
Субдискретизация насыщенности    : 4:2:0
Битовая глубина                  : 10 бит
Тип развёртки                    : Прогрессивная
Бит/(Пиксели*Кадры)              : 0.240
Размер потока                    : 2,58 Гбайт (76%)
Заголовок                        : Adelaide
Библиотека кодирования           : x264 core 125 r2208 d9d2288
Язык                             : Japanese
Default                          : Да
Forced                           : Нет

Аудио #1
Идентификатор                    : 2
Формат                           : AC-3
Формат/Информация                : Audio Coding 3
Расширение режима                : CM (complete main)
Идентификатор кодека             : A_AC3
Продолжительность                : 1 ч. 31 м.
Вид битрейта                     : Постоянный
Битрейт                          : 384 Кбит/сек
Каналы                           : 6 каналов
Расположение каналов             : Front: L C R, Side: L R, LFE
Частота                          : 48,0 КГц
Битовая глубина                  : 16 бит
Метод сжатия                     : С потерями
Размер потока                    : 252 Мбайт (7%)
Заголовок                        : MC Entertainment
Язык                             : Russian
Default                          : Да
Forced                           : Нет

Аудио #2
Идентификатор                    : 3
Формат                           : DTS
Формат/Информация                : Digital Theater Systems
Профиль формата                  : MA / Core
Идентификатор кодека             : A_DTS
Продолжительность                : 1 ч. 31 м.
Вид битрейта                     : Переменный
Битрейт                          : 803 Кбит/сек / 755 Кбит/сек
Каналы                           : 2 канала
Расположение каналов             : Front: L R
Частота                          : 48,0 КГц
Битовая глубина                  : 16 бит
Метод сжатия                     : Без потерь / Lossy
Заголовок                        : Original
Язык                             : Japanese
Default                          : Нет
Forced                           : Нет

Текст
Идентификатор                    : 4
Формат                           : ASS
Идентификатор кодека             : S_TEXT/ASS
Идентификатор кодека/Информация  : Advanced Sub Station Alpha
Метод сжатия                     : Без потерь
Заголовок                        : MC Entertainment
Язык                             : Russian
Default                          : Нет
Forced                           : Нет



Скриншоты: - показать




От себя:
Данный релиз был предоставлен товарищем Nоsferatu, за что ему огромное спасибо.
Дядя Шарик
Релиз от
источник
ARRU & - Найдено в сети & REBUILD ARRU
А вы ничего не забыли?
наверх

Последние поступления