ARRU





Синий Экзорцист
Ao no Exorcist
Blue Exorcist
[01-25 из 25][SPecial 01-11] BDRip 720
GSG   Bookmark


Скачать вход / регистрация
Тема на форуме Обсудить аниме (комментариев: 119)
Обсуждение раздачи (комментариев: 115)
ОписаниеСиний Экзорцист / Ao no Exorcist / Blue Exorcist / [01-25 из 25][SPecial 01-11] BDRip 720 | GSG
Оригинальное название: Ao no Exorcist
Английское название: Blue Exorcist
Русское название: Синий Экзорцист

Страна: Япония
Год выпуска: 2011
Жанр: приключения, мистика

Категория: TV
Количество эпизодов: 25
Продолжительность: 25 мин.
Студия: A-1
Режиссёр: Окамура Тэнсай
Автор оригинала: Като Кадзуэ


Описание:
Рин Окимура и его брат Юкио — сироты, росшие в храме священника и экзорциста Фудзимото. Рин — парень неплохой, но вспыльчивый, придурковатый и постоянно ввязывающийся в драки. Юкио же наоборот, умный, прилежный и мечтающий стать врачом (и лечение извечных ссадин брата ему в этом лишь помогает).
Но в реальности разница между ними куда сильнее: на самом деле Рин — полудемон, и не просто полудемон, а сын самого Сатаны. И когда, вопреки предосторожностям Фудзимото, силы Рина прорезаются наружу, папенька находит его и пытается забрать домой, чтобы в дальнейшем использовать сына в качестве плацдарма для захвата нашего измерения. Рину удаётся избежать сей плачевной участи, но дорогой ценой — Фудзимото гибнет, защищая своего приёмного сына. И тогда Рин решает стать экзорцистом и отомстить Сатане, для чего устраивается вместе с Юкио в специальную закрытую школу. (c) Ulqiorra

Названия эпизодов: - показать

01. Demons Live in the Human Heart
02. Gehenna Gate
03. Brothers
04. Garden of Amahara
05. Child of the Cursed Temple
06. The Phantom Cook  
07. Flock of Plovers
08. Now a Certain Man was Sick
09. Memories
10. Cat Sith
11. Deep-Sea Demon
12. Tag
13. Proof
14. Fun Camp
15. Bug Trap
16. The Wager
17. Temptation
18. Gale
19. An Ordinary Day
20. Mask
21. Secret Garden
22. Demon Hunt
23. Truth
24. Satan`s Offspring
25. Time, Stop
Extra Special Edition: Kuro`s Trip Away from Home
Special 01-10


TV
Контейнер:  mkv
Источник рипа: BDRip,
Видео: H264, 1280x720 23.98fps ~2700 kbps
Аудио: RU - AC-3, 48.0 KHz, 192 kbps; JP - Vorbis, 48000Hz, ~256 Kbps, 2ch
Субтитры: есть встроенные в составе контейнера
MediaInfo: - показать
Уникальный идентификатор         : 172579195935687749138755022073593181825 (0x81D58B4BA6772D2AB65B994B1B21B681)
Полное имя                       : G:[GSG] Ao no Exorcist [BD] [720p]Ao no Exorcist TV�3_Ao_no_Exorcist_TV_[Persona99](BD1280x720x264).rus.jpn.mkv
Формат                           : Matroska
Версия формата                   : Version 2
Размер файла                     : 551 Мбайт
Продолжительность                : 24 м.
Общий поток                      : 3191 Кбит/сек
Дата кодирования                 : UTC 2012-11-13 18:37:40
Программа кодирования            : mkvmerge v3.2.0 ('Beginnings' built on Feb 12 2010 16:46:17
Библиотека кодирования           : libebml v0.7.9 + libmatroska v0.8.1
Attachment                       : Yes / Yes / Yes / Yes / Yes / Yes / Yes / Yes

Видео
Идентификатор                    : 1
Формат                           : AVC
Формат/Информация                : Advanced Video Codec
Профиль формата                  : High@L5.1
Параметр CABAC формата           : Да
Параметр ReFrames формата        : 7 кадров
Идентификатор кодека             : V_MPEG4/ISO/AVC
Продолжительность                : 24 м.
Вид битрейта                     : Переменный
Битрейт                          : 2679 Кбит/сек
Максимальный битрейт             : 40,0 Мбит/сек
Ширина                           : 1280 пикс.
Высота                           : 720 пикс.
Соотношение сторон               : 16:9
Частота кадров                   : 23,976 кадр/сек
Цветовое пространство            : YUV
Подвыборка цветности             : 4:2:0
Битовая глубина                  : 8 бит
Тип развёртки                    : Прогрессивная
Бит/(Пиксели*Кадры)              : 0.121
Размер потока                    : 462 Мбайт (84%)
Заголовок                        : 03 - Brothers
Библиотека кодирования           : x264 core 96 r1613 81e75e9
Настройки программы              : cabac=1 / ref=8 / deblock=1:0:0 / analyse=0x3:0x133 / me=esa / subme=9 / psy=1 / psy_rd=1.00:0.00 / mixed_ref=1 / me_range=16 / chroma_me=1 / trellis=2 / 8x8dct=1 / cqm=0 / deadzone=21,11 / fast_pskip=1 / chroma_qp_offset=-2 / threads=18 / sliced_threads=0 / slices=4 / nr=0 / decimate=1 / interlaced=0 / constrained_intra=0 / bframes=3 / b_pyramid=1 / b_adapt=2 / b_bias=0 / direct=1 / weightb=1 / weightp=2 / keyint=24 / keyint_min=2 / scenecut=40 / intra_refresh=0 / rc_lookahead=24 / rc=crf / mbtree=1 / crf=16.0 / qcomp=0.60 / qpmin=10 / qpmax=51 / qpstep=4 / vbv_maxrate=40000 / vbv_bufsize=30000 / crf_max=0.0 / ip_ratio=1.40 / aq=1:1.00 / nal_hrd=vbr
Язык                             : Japanese

Аудио #1
Идентификатор                    : 2
Формат                           : AC-3
Формат/Информация                : Audio Coding 3
Расширение режима                : CM (complete main)
Идентификатор кодека             : A_AC3
Продолжительность                : 24 м.
Вид битрейта                     : Постоянный
Битрейт                          : 192 Кбит/сек
Каналы                           : 2 канала
Расположение каналов             : Front: L R
Частота                          : 48,0 КГц
Битовая глубина                  : 16 бит
Метод сжатия                     : С потерями
Размер потока                    : 33,1 Мбайт (6%)
Заголовок                        : Persona99
Язык                             : Russian

Аудио #2
Идентификатор                    : 3
Формат                           : Vorbis
Параметр Floor формата           : 1
Идентификатор кодека             : A_VORBIS
Продолжительность                : 24 м.
Вид битрейта                     : Переменный
Битрейт                          : 256 Кбит/сек
Каналы                           : 2 канала
Частота                          : 48,0 КГц
Метод сжатия                     : С потерями
Размер потока                    : 44,2 Мбайт (8%)
Библиотека кодирования           : libVorbis (Schaufenugget) (20101101 (Schaufenugget))
Язык                             : Japanese

Текст
Идентификатор                    : 4
Формат                           : ASS
Идентификатор кодека             : S_TEXT/ASS
Идентификатор кодека/Информация  : Advanced Sub Station Alpha
Метод сжатия                     : Без потерь
Язык                             : Russian

SP
Качество: BDRip
Тип видео: без хардсаба
Формат: mkv
Видео: x264, 1280x720, ~1300 Kbps, 23,976 fps
Аудио RUS: AAC, 48000Hz, 192 Kbps, 2ch
Аудио JAP: AAC, 48000Hz, 192 Kbps, 2ch
Озвучка: (Любительский одноголосый) Persona99 (GetSmart)
Субтитры: встроенные в составе контейнера Язык субтитров русский
MediaInfo: - показать
Общее
Уникальный идентификатор         : 244851177174660349843771784975731504281 (0xB8349F1453B174CEA82EB12E63E1B499)
Полное имя                       : G:[GSG] Ao no Exorcist [BD] [720p]Ao_no_Exorcist_Special_Edition_Kuro_no_Iede_[Persona99](BD1280x720x264).rus.jpn.mkv
Формат                           : Matroska
Версия формата                   : Version 2
Размер файла                     : 292 Мбайт
Продолжительность                : 24 м.
Общий поток                      : 1702 Кбит/сек
Дата кодирования                 : UTC 2012-11-14 12:23:28
Программа кодирования            : mkvmerge v3.2.0 ('Beginnings' built on Feb 12 2010 16:46:17
Библиотека кодирования           : libebml v0.7.9 + libmatroska v0.8.1

Видео
Идентификатор                    : 1
Формат                           : AVC
Формат/Информация                : Advanced Video Codec
Профиль формата                  : High@L4.1
Параметр CABAC формата           : Да
Параметр ReFrames формата        : 4 кадра
Параметры GOP формата            : M=1, N=24
Идентификатор кодека             : V_MPEG4/ISO/AVC
Продолжительность                : 24 м.
Номинальный битрейт              : 1300 Кбит/сек
Ширина                           : 1280 пикс.
Высота                           : 720 пикс.
Соотношение сторон               : 16:9
Частота кадров                   : 23,976 кадр/сек
Цветовое пространство            : YUV
Подвыборка цветности             : 4:2:0
Битовая глубина                  : 8 бит
Тип развёртки                    : Прогрессивная
Бит/(Пиксели*Кадры)              : 0.059
Библиотека кодирования           : x264 core 120 r2164 da19765
Настройки программы              : cabac=1 / ref=4 / deblock=1:1:1 / analyse=0x3:0x113 / me=umh / subme=6 / psy=1 / psy_rd=0.60:0.00 / mixed_ref=1 / me_range=16 / chroma_me=1 / trellis=1 / 8x8dct=1 / cqm=0 / deadzone=21,11 / fast_pskip=1 / chroma_qp_offset=-2 / threads=6 / sliced_threads=0 / nr=0 / decimate=1 / interlaced=0 / bluray_compat=0 / constrained_intra=0 / bframes=3 / b_pyramid=2 / b_adapt=2 / b_bias=0 / direct=3 / weightb=0 / open_gop=0 / weightp=2 / keyint=240 / keyint_min=23 / scenecut=40 / intra_refresh=0 / rc_lookahead=40 / rc=2pass / mbtree=1 / bitrate=1300 / ratetol=1.0 / qcomp=0.60 / qpmin=10 / qpmax=51 / qpstep=4 / cplxblur=20.0 / qblur=0.5 / vbv_maxrate=50000 / vbv_bufsize=50000 / nal_hrd=none / ip_ratio=1.40 / aq=1:0.00

Аудио #1
Идентификатор                    : 2
Формат                           : AAC
Формат/Информация                : Advanced Audio Codec
Профиль формата                  : LC
Идентификатор кодека             : A_AAC
Продолжительность                : 24 м.
Каналы                           : 2 канала
Расположение каналов             : Front: L R
Частота                          : 48,0 КГц
Метод сжатия                     : С потерями
Заголовок                        : Persona99
Язык                             : Russian

Аудио #2
Идентификатор                    : 3
Формат                           : AAC
Формат/Информация                : Advanced Audio Codec
Профиль формата                  : LC
Идентификатор кодека             : A_AAC
Продолжительность                : 24 м.
Каналы                           : 2 канала
Расположение каналов             : Front: L R
Частота                          : 48,0 КГц
Метод сжатия                     : С потерями
Язык                             : Japanese

Текст
Идентификатор                    : 4
Формат                           : ASS
Идентификатор кодека             : S_TEXT/ASS
Идентификатор кодека/Информация  : Advanced Sub Station Alpha
Метод сжатия                     : Без потерь
Язык                             : Russian



Перевод:
Перевод: St.Ranger, Zarco, Soulmate
Редактура: Nati
Оформление: nismo
Озвучивание: Persona99
Пример видеоhttp://multi-up.com/790168
Дядя Шарик
Релиз от
источник
ARRU & Get Smart
А вы ничего не забыли?
наверх

Последние поступления