ARRU





Inu x Boku SS
Я и мой слуга из секретной службы (TV)(2012)[01-12 из 12][BD-Rip][720p]   Bookmark


Скачать вход / регистрация
Тема на форуме Обсудить аниме (комментариев: 20)
Обсуждение раздачи (комментариев: 25)
ОписаниеInu x Boku SS / Я и мой слуга из секретной службы (TV)(2012)[01-12 из 12][BD-Rip][720p]
Оригинальное название: 妖狐×僕SS いぬぼくシークレットサービス
Английское название: Inu x Boku SS
Русское название: Я и мой слуга из секретной службы

Страна: Япония
Год выпуска / период трансляции: c 13.01.2012 по 30.03.2012
Жанр: комедия, романтика, мистика, сверхъестественное

Количество эпизодов ТВ: 12
Продолжительность: 25 мин

Студия:
Режиссёр: Цуда Наокацу
Автор оригинала: Фудзивара Кокоа

Описание:
Любой поклонник аниме знает, что в Японии, начиная с Императора, хватает потомков людей и сверхъестественных существ. Смешанная кровь дает большие преимущества, и подобные кланы давно стали тайной аристократией со строгим кодексом чести и поведения. 15-летняя Риритиё из семьи Сиракиин с детства обладала резким и неуживчивым характером, ибо демонические черты проявились в ней особенно ярко. Поэтому, поступив в старшую школу, девушка решила жить отдельно, чтобы разобраться в себе и научиться ладить с окружающими. Но не в каморку же идти наследнице клана – пришлось устраиваться в роскошный отель «Особняк необъяснимого», в народе давно прозванный «Дом с привидениями»!

Риритиё быстро поняла, что новый дом назван так не зря – в нем обитали такие же, как она, молодые люди, которых мудрые «предки» послали повидать жизнь, в то же время обеспечив комфорт и защиту. Для этого к каждому постояльцу приставлен офицер службы безопасности, совмещающий функции спутника, слуги и телохранителя. А кто может вытерпеть, защитить и исполнить капризы полудемона? Только истинный демон во всем блеске своих возможностей! А если он еще питает к хозяйке нежные чувства, то становится ясно, что юной героине жизнь в веселой общине полукровок точно пойдет на пользу!

© Hollow World Art

Названия эпизодов:
1. «Пес и я»
2. «Одинокий Пес»
3. «Настоящий контракт»
4. «Многоножка» во дворце Аякаси
5. «Весенний Кагеру»
6. «Не думать»
7. «Ночь на двоих»
8. «Чай и расстояние»
9. «День обещания»
10. «Лис-предатель»
11. «Кагеро»
12. «День, когда мы стали вместе»


Качество рипа: BDRip
Автор рипа: Winter
Тип видео: Без хардсаба
Контейнер: mkv
Видео:AVC (h264) | 10 bit | 1280x720 pixels | ~3600Kbps | 23.976 fps

Внимание:
Видео 10-битное! Скачайте и установите свежую версию СССР или K-Lite (x32) и смотрите видео с помощью встроенного туда плеера MPC-HC,  или установите сборку KMP с использованием LAV Filters. Как еще один вариант, можно использовать VLC.

Аудио:
RUS: AC3 | 48000Hz | ~192 Kbps | 2ch
JAP: Vorbis | 48000Hz | ~256 Kbps | 2ch

Перевод:kuro
Редактор: ximik
Озвучивание:Sad_kit & Milirina
Работа со звуком: Boomer, jen_Goro
Субтитры: Shojosei & volta_john (перевод и редактура: Kasandra, Sora_P3_Heaven, volta_john, sys3x, Tany Sword)

MediaInfo: - показать

Общее
Формат                           : Matroska
Версия формата                   : Version 2
Размер файла                     : 693 Мбайт
Продолжительность                : 24 м.
Режим общего битрейта            : Переменный
Общий поток                      : 3983 Кбит/сек
Дата кодирования                 : UTC 2012-11-17 15:47:48
Программа кодирования            : mkvmerge v3.4.0 сборка от May 15 2010 09:38:20
Библиотека кодирования           : libebml v0.8.0 + libmatroska v0.9.0

Видео
Идентификатор                    : 1
Формат                           : AVC
Формат/Информация                : Advanced Video Codec
Профиль формата                  : High 10@L4.1
Параметр CABAC формата           : Да
Параметр ReFrames формата        : 9 кадров
Идентификатор кодека             : V_MPEG4/ISO/AVC
Продолжительность                : 24 м.
Битрейт                          : 3455 Кбит/сек
Ширина                           : 1280 пикселей
Высота                           : 720 пикселей
Соотношение сторон               : 16:9
Частота кадров                   : 23,976 кадра/сек
Цветовое пространство            : YUV
Субдискретизация насыщенности    : 4:2:0
Битовая глубина                  : 10 бит
Тип развёртки                    : Прогрессивная
Бит/(Пиксели*Кадры)              : 0.156
Размер потока                    : 601 Мбайт (87%)
Заголовок                        : Winter
Библиотека кодирования           : x264 core 125 r2200 999b753
Язык                             : Russian
Default                          : Да
Forced                           : Нет

Аудио #1
Идентификатор                    : 2
Формат                           : AC-3
Формат/Информация                : Audio Coding 3
Расширение режима                : CM (complete main)
Идентификатор кодека             : A_AC3
Продолжительность                : 24 м.
Вид битрейта                     : Постоянный
Битрейт                          : 192 Кбит/сек
Каналы                           : 2 канала
Расположение каналов             : Front: L R
Частота                          : 48,0 КГц
Битовая глубина                  : 16 бит
Метод сжатия                     : С потерями
Размер потока                    : 33,4 Мбайт (5%)
Заголовок                        : Sad kit & Milirina
Язык                             : Russian
Default                          : Да
Forced                           : Нет

Аудио #2
Идентификатор                    : 3
Формат                           : Vorbis
Параметр Floor формата           : 1
Идентификатор кодека             : A_VORBIS
Продолжительность                : 24 м.
Вид битрейта                     : Переменный
Битрейт                          : 256 Кбит/сек
Каналы                           : 2 канала
Частота                          : 48,0 КГц
Метод сжатия                     : С потерями
Размер потока                    : 44,5 Мбайт (6%)
Заголовок                        : Original
Библиотека кодирования           : libVorbis (Schaufenugget) (20101101 (Schaufenugget))
Язык                             : Japanese
Default                          : Нет
Forced                           : Нет

Текст #1
Идентификатор                    : 4
Формат                           : ASS
Идентификатор кодека             : S_TEXT/ASS
Идентификатор кодека/Информация  : Advanced Sub Station Alpha
Метод сжатия                     : Без потерь
Заголовок                        : Shojosei & volta_john (надписи)
Язык                             : Russian
Default                          : Да
Forced                           : Нет

Текст #2
Идентификатор                    : 5
Формат                           : ASS
Идентификатор кодека             : S_TEXT/ASS
Идентификатор кодека/Информация  : Advanced Sub Station Alpha
Метод сжатия                     : Без потерь
Заголовок                        : Shojosei & volta_john
Язык                             : Russian
Default                          : Нет
Forced                           : Нет


Скриншоты: - показать




От себя:
Данный релиз был предоставлен товарищем Aglenn, за что ему огромное спасибо.
Дядя Шарик
Релиз от
источник
ARRU & Anything-Group & REBUILD ARRU
А вы ничего не забыли?
наверх

Последние поступления