ARRU





Tatakau Shisho: The Book of Bantorra
Боевые Библиотекари: Книга Банторры [1-27 из 27] [BDRip HWP]   Bookmark


Скачать вход / регистрация
Тема на форуме Обсудить аниме (комментариев: 33)
Обсуждение раздачи (комментариев: 5)
ОписаниеTatakau Shisho: The Book of Bantorra / Боевые Библиотекари: Книга Банторры [1-27 из 27] [BDRip HWP]
Оригинальное название: 戦う司書 The Book of Bantorra
Английское название: Tatakau Shisho - The Book of Bantorra
Русское название: Боевые Библиотекари: Книга Банторры

Страна: Япония
Жанр: приключения, мистика
Год выхода: 2009
Колличество серий: 27
Продолжительность: 24 мин
Студия: David Production
Режиссёр: Синохара Тосия
Автор оригинала: Ямагата Исио

Описание:
В этом мире милостью Банторры – бога прошлого – все умершие люди превращаются в книги, прикоснувшись к которым любой может прочесть страницы жизни хозяина. Знание – сила, и книги собираются в Великой библиотеке, патроном которой является сам Банторра, а хранителями – каста Библиотекарей – могучих боевых магов, призванных поддерживать порядок и карать неразумных. Неразумные тут как тут – это Синдэки Кёдан или могущественная секта «Божественной Любви». Вот только лидеры секты, «истинные», любят, в основном, власть, а еще обожают руками «верных» готовить из простых людей «мясо», то есть бездушных солдат и убийц, в том числе живые бомбы для тех, кто достижению власти мешает.

А мешают, разумеется, Боевые Библиотекари, которых возглавляет циничная, зато умная и хладнокровная Месета Хамюцу. Разумеется, враги раз за разом совершенствуют планы ее устранения, но Месета рассматривает их скорее как тренировку своих неслабых боевых и магических способностей. Вместе с разношерстной бригадой подчиненных ей придется вести увлекательную агентурную игру, рушить козни сектантов, разбираться в тайнах прошлого, помогать людям и всячески поддерживать мир и спокойствие на вверенной территории. Ведь мир и спокойствие необходимы каждой библиотеке – что простой, что Великой!

© Hollow, World Art

Названия эпизодов - показать

01. A Bomb, a Book and a Sinking Ship
02. Bombs, a Princess and a Gray Town
03. A Bomb, Humans, Death, and God`s Sickness
04. An Evening, Shiron and Korio
05. A Betrayal, A Cup, and a Meandering Path
06. Thunder, a Monster, and a Girl`s Punch
07. A Smile, a Mask, and a Man with a Death Wish
08. A Pond, Comrades, and a Seashell
09. A True Man, a Battlefield and My World
10. A Weird Guy, a Mother and the Nest of the Black Ants
11. A Weakling, the Labyrinth, and Moving the Queen
12. The Past, Irrationality, and a Pipe`s Smoke
13. A Day Off, a Picture Book, and Rusty Hair
14. The Setting Sun, a Storyteller, and a Collection of Fables
15. A Girl, a Girl, and the Bed of God
16. Banned Book, a Coward, and the Sacred Eyes
17. A Return Home, an Encounter, and Burning Bridges
18. A Propeller, Recolletion, and the Lead Human
19. A Fool, Empty Space, and a Dancing Puppet
20. Funeral Bells, a Book, and a Boy with a Death Wish
21. Enmity, the Color Blue, and the Rope Princess
22. The Sky, an Ending, and a Girl`s World
23. A Jailbreak, a Tool and the Violet Desert
24. Truth, Love, and the Second Sealed Library
25. A Story of Silence, Inactivity and Despair
26. Redemption, Purplexity and the Book Within a Book
27. The Might of the World


Источник рипа: BD-Rip
Автор рипа\энкод: RACER RS
Тип видео: Без хардсаба
Контейнер: AVI
Видео: XviD 64 | 720 x 404 (16:9) | 23,976 fps | 1450 kbps ;

Аудио:
RUS: AC3 | 48000Hz | 256 Kbps | 2ch
JAP: AC3 | 48000Hz | 256 Kbps | 2ch
Субтитры: Ru - soft [ASS]и[SRT]

Озвучивание: Persona99 & MaxDamage
Перевод: Hollow

MediaInfo: - показать
Format                                   : AVI
Format/Info                              : Audio Video Interleave
File size                                : 339 MiB
Duration                                 : 24mn 0s
Overall bit rate                         : 1 976 Kbps
Writing application                      : VirtualDubMod 1.5.10.2 (build 2540/release)
Writing library                          : VirtualDubMod build 2540/release

Video
ID                                       : 0
Format                                   : MPEG-4 Visual
Format profile                           : Advanced Simple@L5
Format settings, BVOP                    : 2
Format settings, QPel                    : No
Format settings, GMC                     : No warppoints
Format settings, Matrix                  : Default (H.263)
Codec ID                                 : XVID
Codec ID/Hint                            : XviD
Duration                                 : 24mn 0s
Bit rate                                 : 1 450 Kbps
Width                                    : 720 pixels
Height                                   : 404 pixels
Display aspect ratio                     : 16:9
Frame rate                               : 23.976 fps
Color space                              : YUV
Chroma subsampling                       : 4:2:0
Bit depth                                : 8 bits
Scan type                                : Progressive
Compression mode                         : Lossy
Bits/(Pixel*Frame)                       : 0.208
Stream size                              : 249 MiB (73%)
Writing library                          : XviD 64

Audio #1
ID                                       : 1
Format                                   : AC-3
Format/Info                              : Audio Coding 3
Mode extension                           : CM (complete main)
Format settings, Endianness              : Big
Codec ID                                 : 2000
Duration                                 : 24mn 0s
Bit rate mode                            : Constant
Bit rate                                 : 256 Kbps
Channel(s)                               : 2 channels
Channel positions                        : Front: L R
Sampling rate                            : 48.0 KHz
Bit depth                                : 16 bits
Compression mode                         : Lossy
Stream size                              : 43.9 MiB (13%)
Alignment                                : Split accross interleaves
Interleave, duration                     : 42 ms (1.00 video frame)
Interleave, preload duration             : 500 ms
Title                                    : Persona99 & MaxDamege [Russian]

Audio #2
ID                                       : 2
Format                                   : AC-3
Format/Info                              : Audio Coding 3
Mode extension                           : CM (complete main)
Format settings, Endianness              : Big
Codec ID                                 : 2000
Duration                                 : 24mn 0s
Bit rate mode                            : Constant
Bit rate                                 : 256 Kbps
Channel(s)                               : 2 channels
Channel positions                        : Front: L R
Sampling rate                            : 48.0 KHz
Bit depth                                : 16 bits
Compression mode                         : Lossy
Stream size                              : 43.9 MiB (13%)
Alignment                                : Split accross interleaves
Interleave, duration                     : 42 ms (1.00 video frame)
Interleave, preload duration             : 500 ms
Title                                    : Original [Japanese]


Скриншоты: - показать




Дядя Шарик
Релиз от
источник
ARRU & Get Smart & REBUILD ARRU   &   RACER_RS
А вы ничего не забыли?
наверх

Последние поступления