ARRU





Поедающая Сны
Yumekui Merry [1-13 of 13] [BD-Rip HWP]   Bookmark


Скачать вход / регистрация
Тема на форуме Обсудить аниме (комментариев: 77)
Обсуждение раздачи (комментариев: 51)
ОписаниеПоедающая Сны / Yumekui Merry [1-13 of 13] [BD-Rip HWP]
Оригинальное название:  夢喰いメリー
Английское название: Yumekui Merry
Русское название: Мэрри, пожирательница грёз

Страна: Япония
Жанр: приключения, романтика, мистика,
Год выхода: 2011
Колличество серий: 13
Продолжительность: 24 мин
Студия: J.C.STAFF
Режиссёр: Ямаучи Шигэясу
Автор оригинала: Ушики Ёшитака

Описание:
«Поедающая Сны» («夢喰いメリー» «Yumekui Merry»)
Фудзивара Юмедзи. Ничем не примечательный юноша… По идее. Был. Когда-то. Непримечательным. В возрасте 7 лет, он открыл для себя странную силу… Силу видеть ауру снов. Он может узнать какой сон снился человеку, по этой ауре… С некоторой вероятностью успеха. Да уж, есть куда развиваться… Впрочем, один тип снов Юмедзи может узнать всегда. Один. Единственный. Непохожий на остальные. Да. Кошмар. Ночной кошмар. Сон, чёрный как смоль.
Очень часто, Фудзивару посещает один и тот же кошмар… Сон, про войну с… кошками. И эта война уже скоро должна подойти к концу, Юмедзи пообещали, что в следующий раз он встретится с Кошачьим Главой… Что за Глава? Ну да и чёрт с ним, думает Юмедзи… В тот же день ему, буквально, на голову падает странная девчонка… Так всё и начинается. Или, быть может, всё началось уже давно?..

Ёситака Усуки предлагает нам посмотреть на человека, который встретился с Ночным Кошмаром. Человеком, чей ночной кошмар ожил. Человеком, чей Кошмар попытался взять над ним верх. Интересно? Очень!

© Xellos Slayer

Названия эпизодов - показать

01. Dream Reality
02. Dreams and Hopes
03. From the Other Side of a Dream
04. Dream Eater Merry
05. Astray in a Dream
06. Dream Encounter
07. Dreams and Swimsuits and the Colour of the Sea
08. Dream Corridor
09. Disturbed Dreams
10. Not Awakening from a Dream
11. Guardian of Dreams
12. Nightmare
13. Dream Again


Источник рипа: BD
Автор рипа\энкод: RACER RS
BD - тайминг звука: Vulpes все, Persona99 (4 и 5 серии) RACER RS (остальные неизвестно)
Тип видео: Без хардсаба
Контейнер: AVI
Видео: XviD 64 | 720 x 404 (16:9) | 23,976 fps | 1450 kbps ;

Аудио:
RUS 1: AC3 | 48000Hz | 192 Kbps | 2ch Persona99
RUS 2: MP3 | 48000Hz | 192 Kbps | 2ch Vulpes Vulpes
JAP: AC3 | 48000Hz | 256 Kbps | 2ch
Субтитры: Ru - soft [ASS] и [SRT]

Перевод:
StormHeart and Stan WarHammer(1-8 серии)
[Dreamers Team]: DARio, InFar, Rain lover (9-13 серии)

MediaInfo: - показать
Format                                   : AVI
Format/Info                              : Audio Video Interleave
File size                                : 365 MiB
Duration                                 : 24mn 10s
Overall bit rate                         : 2 109 Kbps
Writing application                      : VirtualDubMod 1.5.10.2 (build 2540/release)
Writing library                          : VirtualDubMod build 2540/release

Video
ID                                       : 0
Format                                   : MPEG-4 Visual
Format profile                           : Advanced Simple@L5
Format settings, BVOP                    : 2
Format settings, QPel                    : No
Format settings, GMC                     : No warppoints
Format settings, Matrix                  : Default (H.263)
Codec ID                                 : XVID
Codec ID/Hint                            : XviD
Duration                                 : 24mn 10s
Bit rate                                 : 1 450 Kbps
Width                                    : 720 pixels
Height                                   : 404 pixels
Display aspect ratio                     : 16:9
Frame rate                               : 23.976 fps
Color space                              : YUV
Chroma subsampling                       : 4:2:0
Bit depth                                : 8 bits
Scan type                                : Progressive
Compression mode                         : Lossy
Bits/(Pixel*Frame)                       : 0.208
Stream size                              : 251 MiB (69%)
Writing library                          : XviD 64

Audio #1
ID                                       : 1
Format                                   : AC-3
Format/Info                              : Audio Coding 3
Mode extension                           : CM (complete main)
Format settings, Endianness              : Big
Codec ID                                 : 2000
Duration                                 : 24mn 10s
Bit rate mode                            : Constant
Bit rate                                 : 192 Kbps
Channel(s)                               : 2 channels
Channel positions                        : Front: L R
Sampling rate                            : 48.0 KHz
Bit depth                                : 16 bits
Compression mode                         : Lossy
Stream size                              : 33.2 MiB (9%)
Alignment                                : Split accross interleaves
Interleave, duration                     : 42 ms (1.00 video frame)
Interleave, preload duration             : 500 ms
Title                                    : Persona99 [Russian]

Audio #2
ID                                       : 2
Format                                   : MPEG Audio
Format version                           : Version 1
Format profile                           : Layer 3
Mode                                     : Joint stereo
Mode extension                           : MS Stereo
Codec ID                                 : 55
Codec ID/Hint                            : MP3
Duration                                 : 24mn 9s
Bit rate mode                            : Constant
Bit rate                                 : 192 Kbps
Channel(s)                               : 2 channels
Sampling rate                            : 48.0 KHz
Compression mode                         : Lossy
Stream size                              : 33.2 MiB (9%)
Alignment                                : Aligned on interleaves
Interleave, duration                     : 42 ms (1.00 video frame)
Interleave, preload duration             : 504 ms
Title                                    : Vulpes Vulpes [Russian]
Writing library                          : LAME3.96

Audio #3
ID                                       : 3
Format                                   : AC-3
Format/Info                              : Audio Coding 3
Mode extension                           : CM (complete main)
Format settings, Endianness              : Big
Codec ID                                 : 2000
Duration                                 : 24mn 10s
Bit rate mode                            : Constant
Bit rate                                 : 256 Kbps
Channel(s)                               : 2 channels
Channel positions                        : Front: L R
Sampling rate                            : 48.0 KHz
Bit depth                                : 16 bits
Compression mode                         : Lossy
Stream size                              : 44.3 MiB (12%)
Alignment                                : Split accross interleaves
Interleave, duration                     : 42 ms (1.00 video frame)
Interleave, preload duration             : 500 ms
Title                                    : Original [Japanese]


Скриншоты: - показать




Дядя Шарик
Релиз от
источник
ARRU & Get Smart & Vulpes Vulpes & REBUILD ARRU   &   RACER_RS
А вы ничего не забыли?
наверх

Последние поступления