ARRU





Ergo Proxy
Эрго Прокси (TV)(2006)[01-23 из 23][DVDRip][HWP]   Bookmark


Скачать вход / регистрация
Тема на форуме Обсудить аниме (комментариев: 234)
Обсуждение раздачи (комментариев: 9)
Смотреть онлайн
ОписаниеErgo Proxy / Эрго Прокси (TV)(2006)[01-23 из 23][DVDRip][HWP]

Оригинальное название: エルゴプラクシー
Английское название: Ergo Proxy
Русское название: Эрго Прокси
Страна: Япония
Трансляция: c 25.02.2006 по 12.08.2006
Жанр: Киберпанк, детектив, фантастика
Количество эпизодов ТВ: 23
Продолжительность: 25 мин
Режиссёр: Мурасэ Сюко
Режиссёр: Сато Дай
Студия: Manglobe


Описание:
  В пустынном обезлюдевшем мире выжить можно лишь в городе-куполе, и Ромдо – одно из немногих мест, где сохранилась цивилизация. Но для поддержания порядка нужна крепкая рука, поэтому властью в Ромдо распоряжается не дряхлый наместник Донов Мейер, а четыре Советника-робота. Однако даже роботам нельзя доверять – с тех пор, как загадочный вирус Когито начал превращать послушных механических слуг в бунтовщиков и даже убийц.
  Внучка наместника Рил берётся за расследование: необходимо выяснить, что стало причиной вируса, и кто его распространяет. Вскоре и сама Рил подвергается нападению, а в круг подозреваемых попадает скромный юноша, которого она почти не знает – Винсент Лоу, бывший иммигрант, а ныне кандидат на звание примерного граждана. Его причастность сомнительна, но одно бесспорно: именно за Винсентом охотится странное чудовище, устроившее резню посреди города.
  В поисках ответа Винсент покидает Ромдо и вместе с заражённым роботом-девочкой Пино отправляется к своему родному городу, когда-то разрушенному по неизвестной причине. Рил следует за ним – по умирающему миру, где каждая разгадка порождает новые тайны, и где создатели куполов боги-прокси молят о смерти Эрго Прокси – единственного, кто может даровать им покой...
© Расселл Д. Джонс


Названия эпизодов:
01. Awakening
02. Confession
03. Mazecity
04. Futu-risk
05. TASOGARE
06. Domecoming
07. re-1124c41+
08. Shining Sign
09. Angel's Share
10. Cytotropism
11. Anamunesisu
12. Hideout
13. Wrong Way Home
14. Ophelia
15. Who Wants to be in Jeopardy!
16. Busy Doing Nothing
17.Terra Incognita
18. Life After God
19. Eternal Smile
20. Goodbye Vince
21. Shampoo Planet
22. Bilbul
23. Deus Ex Machina


Источник рипа: DVD-Rip [Yurasyk]
Автор рипа\энкод: Renmei Rei
Тип видео: Без хардсаба
Контейнер: AVI
Видео: XviD (Build 65) | 720 x 404 пикселей | 23,976 кадра/сек | ~1500 Кбит/сек ;

Аудио:
RUS: AC-3 | 48.0 КГц | 6 каналов | 384 Кбит/сек;
JAP:  AC-3 | 48.0 КГц | 6 каналов | 384 Кбит/сек

Субтитры: русские\отдельно [SRT]
Озвучивание: MC Entertainment
Перевод:  MC Entertainment

MediaInfo: - показать
Общее
Полное имя                               : D:\Video\HWP\[AnimeReactor.RU] Ergo Proxy (TV)[1-23 of 23][DVDRip][HWP]\Ergo Proxy [01 of 23][DVDRip][720x404 XviD AC3x2][AnimeReactor.RU].avi
Формат                                   : AVI
Формат/Информация                        : Audio Video Interleave
Размер файла                             : 421 Мбайт
Продолжительность                        : 25 м.
Общий поток                              : 2281 Кбит/сек
Программа кодирования                    : VirtualDubModRus 1.5.10.2 (build 2542/release)
Библиотека кодирования                   : VirtualDubMod build 2542/release

Видео
Идентификатор                            : 0
Формат                                   : MPEG-4 Visual
Профиль формата                          : Advanced Simple@L5
Параметр BVOP формата                    : 2
Параметр QPel формата                    : Нет
Параметр GMC формата                     : Без точки перехода
Параметр матрицы формата                 : Default (H.263)
Идентификатор кодека                     : XVID
Идентификатор кодека/Подсказка           : XviD
Продолжительность                        : 25 м.
Битрейт                                  : 1500 Кбит/сек
Ширина                                   : 720 пикселей
Высота                                   : 404 пикселя
Соотношение сторон                       : 16:9
Частота кадров                           : 23,976 кадра/сек
Цветовое пространство                    : YUV
Субдискретизация насыщенности            : 4:2:0
Битовая глубина                          : 8 бит
Тип развёртки                            : Прогрессивная
Метод сжатия                             : С потерями
Бит/(Пиксели*Кадры)                      : 0.215
Размер потока                            : 277 Мбайт (66%)
Библиотека кодирования                   : XviD 65

Аудио #1
Идентификатор                            : 1
Формат                                   : AC-3
Формат/Информация                        : Audio Coding 3
Расширение режима                        : CM (complete main)
Параметр Endianness формата              : Big
Идентификатор кодека                     : 2000
Продолжительность                        : 25 м.
Вид битрейта                             : Постоянный
Битрейт                                  : 384 Кбит/сек
Каналы                                   : 6 каналов
Расположение каналов                     : Front: L C R, Side: L R, LFE
Частота                                  : 48,0 КГц
Битовая глубина                          : 16 бит
Метод сжатия                             : С потерями
Размер потока                            : 70,8 Мбайт (17%)
Выравнивание                             : Разделение по промежуткам
Продолжительность промежутка             : 42  мс. (1,00 видеокадр)
Время предзагрузки промежутка            : 500  мс.
Заголовок                                : Russian [MC Entertainment]

Аудио #2
Идентификатор                            : 2
Формат                                   : AC-3
Формат/Информация                        : Audio Coding 3
Расширение режима                        : CM (complete main)
Параметр Endianness формата              : Big
Идентификатор кодека                     : 2000
Продолжительность                        : 25 м.
Вид битрейта                             : Постоянный
Битрейт                                  : 384 Кбит/сек
Каналы                                   : 6 каналов
Расположение каналов                     : Front: L C R, Side: L R, LFE
Частота                                  : 48,0 КГц
Битовая глубина                          : 16 бит
Метод сжатия                             : С потерями
Размер потока                            : 70,7 Мбайт (17%)
Выравнивание                             : Разделение по промежуткам
Продолжительность промежутка             : 42  мс. (1,00 видеокадр)
Время предзагрузки промежутка            : 500  мс.
Заголовок                                : Japanese [Original]


Скриншоты: - показать


Дядя Шарик
Релиз от
источник
ARRU & Netlab AnimaGroup & RenmeiRei & REBUILD ARRU
А вы ничего не забыли?
наверх

Последние поступления