ARRU





Okami-san to Shichinin no Nakama-tachi
Волчица и семеро друзей [01-12 из 12] [BD-Rip HWP]   Bookmark


Скачать вход / регистрация
Тема на форуме Обсудить аниме (комментариев: 31)
Обсуждение раздачи (комментариев: 51)
Смотреть онлайн
ОписаниеOkami-san to Shichinin no Nakama-tachi / Волчица и семеро друзей [01-12 из 12] [BD-Rip HWP]
Оригинальное название: Okami-san to Shichinin no Nakama-tachi
Английское название: Wolf and the Seven Friends
Русское название: Волчица и семеро друзей

Страна: Япония
Жанр: комедия, романтика, пародия
Год выхода: 2010
Колличество серий: 12
Продолжительность: 24 мин
Студия:  J.C. Staff
Режиссёр: Ивасаки Ёсиаки
Автор оригинала: Окита Масаси

Описание:
Что самое ценное на свете? Конечно же, дружба! А друзья должны помогать, и не только друг другу, но и всем желающим, не забывая попутно напоминать древний принцип «услуга за услугу»… Именно этим занимается таинственный «клуб взаимопомощи академии Отоги», каждый из членов которого отыгрывает кого-то из персонажей мировой культуры, решая проблемы товарищей по учебе. И, хотя проблем у японских старшеклассников немало, в «кассе взаимопомощи» трудятся настоящие энтузиасты, работая с таким огоньком, что препятствия на пути решения вопросов можно только пожалеть!

Главная ударная сила клуба – тандем шумной пацанки Рёко Ооками и ее миниатюрной напарницы Ринго Акай по прозвищу Красная Шапочка. Вместе с примкнувшим стажером Рёси Морино, по совместительству поклонником главной героини, девушки неустанно решают проблемы учеников Отоги, выполняя все новые поручения хитроумного президента клуба. Вот только почему каждая история приключений Рёко и ее друзей в основе похожа на очередной сказочный сюжет? А потому, что сказка ложь, да в ней намек!

© Hollow

Названия эпизодов - показать

01. Ookami-san and Friends in Otogi Bank
02. The Lying Ookami-san and Ryoushi-kun
03. Ookami-san Tangled in the Ugly Battle Between the Tortoise and the Hare
04. Ookami-san and Otsuu-senpai Who Returns a Favor
05. Ookami-san Goes Oni-slaying with Momo-chan-senpai  
06. Ookami-san and Little Red Riding Hood, Oh, and Ryoushi-kun
07. Ookami-san Goes on a Double Date with Jizou-san
08. Ookami-san Helps a Mouse Find a Bride and Pigs Should Be Treated Like This
09. Ookami-san and a Snow White who is Immune to Poisoned Apples
10. Ookami-san and the Otogi Bank`s Longest Day
11. Ookami-san and the Wolf in Sheep`s Clothing
12. Ookami-san and a Girl That Didn`t Sell Matches but Was Poor Anyway


Источник рипа: BD-Rip
Автор рипа\энкод: RACER RS
Тип видео: Без хардсаба
Контейнер: AVI
Видео: XviD 65 | 720 x 404 (16:9) | 23,976 fps | 1450 kbps ;

Аудио:
RUS: AC3 | 48000Hz | 192 Kbps | 2ch
JAP: AC3 | 48000Hz | 256 Kbps | 2ch
Субтитры: Ru - soft [ASS]и[SRT]

Озвучивание: Persona99
Перевод: GMC
За обложку спасбо NASTR

MediaInfo: - показать
Format                                   : AVI
Format/Info                              : Audio Video Interleave
File size                                : 325 MiB
Duration                                 : 23mn 42s
Overall bit rate                         : 1 916 Kbps
Writing application                      : VirtualDubMod 1.5.10.2 (build 2540/release)
Writing library                          : VirtualDubMod build 2540/release

Video
ID                                       : 0
Format                                   : MPEG-4 Visual
Format profile                           : Advanced Simple@L5
Format settings, BVOP                    : 2
Format settings, QPel                    : No
Format settings, GMC                     : No warppoints
Format settings, Matrix                  : Default (H.263)
Codec ID                                 : XVID
Codec ID/Hint                            : XviD
Duration                                 : 23mn 42s
Bit rate                                 : 1 454 Kbps
Width                                    : 720 pixels
Height                                   : 404 pixels
Display aspect ratio                     : 16:9
Frame rate                               : 23.976 fps
Color space                              : YUV
Chroma subsampling                       : 4:2:0
Bit depth                                : 8 bits
Scan type                                : Progressive
Compression mode                         : Lossy
Bits/(Pixel*Frame)                       : 0.209
Stream size                              : 247 MiB (76%)
Writing library                          : XviD 65

Audio #1
ID                                       : 1
Format                                   : AC-3
Format/Info                              : Audio Coding 3
Mode extension                           : CM (complete main)
Format settings, Endianness              : Big
Codec ID                                 : 2000
Duration                                 : 23mn 42s
Bit rate mode                            : Constant
Bit rate                                 : 192 Kbps
Channel(s)                               : 2 channels
Channel positions                        : Front: L R
Sampling rate                            : 48.0 KHz
Bit depth                                : 16 bits
Compression mode                         : Lossy
Stream size                              : 32.5 MiB (10%)
Alignment                                : Split accross interleaves
Interleave, duration                     : 42 ms (1.00 video frame)
Interleave, preload duration             : 500 ms
Title                                    : Persona99 [Russian]

Audio #2
ID                                       : 2
Format                                   : AC-3
Format/Info                              : Audio Coding 3
Mode extension                           : CM (complete main)
Format settings, Endianness              : Big
Codec ID                                 : 2000
Duration                                 : 23mn 42s
Bit rate mode                            : Constant
Bit rate                                 : 256 Kbps
Channel(s)                               : 2 channels
Channel positions                        : Front: L R
Sampling rate                            : 48.0 KHz
Bit depth                                : 16 bits
Compression mode                         : Lossy
Stream size                              : 43.4 MiB (13%)
Alignment                                : Split accross interleaves
Interleave, duration                     : 42 ms (1.00 video frame)
Interleave, preload duration             : 500 ms
Title                                    : Original [Japanese]



Скриншоты: - показать




Дядя Шарик
Релиз от
источник
ARRU & Get Smart & REBUILD ARRU   &   RACER_RS
А вы ничего не забыли?
наверх

Последние поступления